Поиск

1961 Ken McIntyre - Stone Blues (2019) {RevOla} [24-44.1]

1961 Ken McIntyre - Stone Blues (2019) {RevOla} [24-44.1]
Стили:
Дата записи диска:
31 мая 1960
Место записи:
Van Gelder Recording Studio, Englewood Cliffs, New Jersey, USA
Издатель (лейбл):
Носитель:
WEB
Формат:
PCM
Тип рипа:
tracks
Контейнер:
FLAC (*.flac)
Количество каналов:
2.0
Разрядность/ЧД:
24/44,1
Битрейт аудио:
lossless
Время звучания:
00:38:15
Наличие сканов:
только обложка
Наличие водяных знаков:
нет
Страна-производитель диска (релиза):
USA
Релизёр (источник):
M0p94ok

Треклист:

1. Stone Blues (Remastered)  08:07
2. Cornballs (Remastered)  06:15
3. Blanche (Remastered)  04:02
4. Mellifluous (Remastered)  05:02
5. Smax (Remastered)  03:59
6. Charsee (Remastered)  04:49
7. I'll Close My Eyes (Remastered)  06:01

Лог проверки качества
foobar2000 1.3.16 / Dynamic Range Meter 1.1.1
log date: 2019-05-12 15:29:42

--------------------------------------------------------------------------------
Analyzed: Ken McIntyre / Stone Blues
--------------------------------------------------------------------------------

DR         Peak         RMS     Duration Track
--------------------------------------------------------------------------------
DR13      -5.79 dB   -23.94 dB      8:08 01-Stone Blues
DR11     -11.08 dB   -27.29 dB      6:15 02-Cornballs
DR11      -6.65 dB   -23.21 dB      4:02 03-Blanche
DR12      -7.89 dB   -25.97 dB      5:03 04-Mellifluous
DR12      -6.80 dB   -23.04 dB      4:00 05-Smax
DR11      -7.84 dB   -22.31 dB      4:50 06-Charsee
DR13      -9.50 dB   -27.86 dB      6:02 07-I'll Close My Eyes
--------------------------------------------------------------------------------

Number of tracks:  7
Official DR value: DR12

Samplerate:        44100 Hz
Channels:          2
Bits per sample:   24
Bitrate:           1214 kbps
Codec:             FLAC
================================================================================
Приватный:
Нет (DHT включён)
Размер:
359.68 Мб (377,147,941 байт) » файлов: 9
Участники:
2 раздают, 0 качают (2 участников всего)
Внешние участники:
--- [ Обновить ]
No seeders - write personal message to M0p94ok. Any questions - support@pro-jazz.com.
Нет сидеров - пишите в личку M0p94ok. Есть вопросы - support@pro-jazz.com
12:28
44
Нет комментариев. Ваш будет первым!