Поиск

1980 Grover Washington, Jr. - Winelight (2002) {Elektra} [24-192]

1980 Grover Washington, Jr. - Winelight (2002) {Elektra} [24-192]
Дата записи диска:
1 июня - 1 июля 1980
Место записи:
Rosebud Recording Studio, New York City, NY, USA
Издатель (лейбл):
Битрейт аудио:
lossless

Треклист:

01 - Winelight (07:34)
02 - Let It Flow (For Dr. J) (05:53)
03 - In the Name of Love (05:29)
04 - Take Me There (06:17)
05 - Just the Two of Us (feat. Bill Withers) (07:25)
06 - Make Me a Memory (Sad Samba) (06:30)

Доп. инфо:

• Формат записи | Источник записи: [TR24][OF]
• Наличие водяных знаков: Нет
• Год издания релиза: 1980 (2002)
• Продолжительность: 00:39:11
• Источник: losslessclub
• WEB релиз: ссылка
• Контейнер: FLAC (*.flac)
• Тип рипа: tracks
• Разрядность: 24/192
• Формат: PCM
• Количество каналов: 2.0
• Наличие сканов: front

Лог проверки качества
foobar2000 1.4.8 / Замер динамического диапазона (DR) 1.1.1
Дата отчёта:  2021-02-22 23:15:04

--------------------------------------------------------------------------------
Анализ:   Marcus Miller / Winelight (Édition Studio Masters)
--------------------------------------------------------------------------------

DR         Пики         RMS           Продолжительность трека
--------------------------------------------------------------------------------
DR11      -0.20 дБ   -13.39 дБ      7:34 01-Winelight
DR11      -0.20 дБ   -13.63 дБ      5:54 02-Let It Flow (For "Dr. J")
DR13      -0.20 дБ   -15.54 дБ      5:29 03-In the Name of Love
DR10      -0.20 дБ   -13.24 дБ      6:18 04-Take Me There
DR9       -0.20 дБ   -12.52 дБ      7:26 05-Just the Two of Us (feat. Bill Withers)
DR11      -0.20 дБ   -13.37 дБ      6:31 06-Make Me a Memory (Sad Samba)
--------------------------------------------------------------------------------

Количество треков: 6
Реальные значения DR: DR11

Частота:   192000 Гц
Каналов:   2
Разрядность:   24
Битрейт:   5434 кбит/с
Кодек:   FLAC
================================================================================
Приватный:
Нет (DHT включён)
Размер:
1.50 Гб (1,612,005,432 байт) » файлов: 7
Участники:
0 раздают, 1 качают (1 участников всего)
Внешние участники:
23 раздают, 7 качают (30 участников всего) [ Обновить ]
Скорость:
1.15 Мб/c 0/c
No seeders - write personal message to M0p94ok. Any questions - support@pro-jazz.com.
Нет сидеров - пишите в личку M0p94ok. Есть вопросы - support@pro-jazz.com
11:43
46
Нет комментариев. Ваш будет первым!