Поиск

2019 Greg Reitan - West 60th {Sunnyside} [24-44.1]

2019 Greg Reitan - West 60th {Sunnyside} [24-44.1]
Место записи:
Concept 2 Studios, Los Angeles, CA, USA
Дата издания диска:
19 апреля 2019
Издатель (лейбл):
Номер по каталогу:
SSC 1542
Носитель:
WEB
Формат:
PCM
Тип рипа:
tracks
Контейнер:
FLAC (*.flac)
Количество каналов:
2.0
Разрядность/ЧД:
24/44,1
Битрейт аудио:
lossless
Время звучания:
00:45:22
Наличие сканов:
только обложка
Наличие водяных знаков:
нет
Страна-производитель диска (релиза):
USA
Релизёр (источник):
M0p94ok
Треклист:

01. Hindemith 03:03
02. West 60th 04:24
03. When You Are Near 04:48
04. Momentum 03:30
05. Little One 05:17
06. Lines 03:08
07. Luminosity 05:52
08. Fluence 03:33
09. Four Piano Blues, Movement No. 3 02:42
10. Man Overboard 04:20
11. Epilogue 04:45

Доп. инфо:

Совокупный блеск, сформированный за три десятилетия сочинения и исполнения, появлялся Грегом Рейтаном в особых случаях. Пианист из Лос-Анджелеса предоставил миру джаза, классической музыки и кино исключительную композиционную работу, а слушатели уделили особое внимание хорошо отточенным живым выступлениям его трио.

Именно во время выступления в октябре 2017 года в нью-йоркском клубе Dizzy’s Club Coca-Cola загорелась искра для новой записи Рейтана, West 60th. Вдохновленный драматическим видом на город во время саундчека с площадки на вершине Columbus Circle, Рейтан написал одноименный вальс в своем гостиничном номере. Песня стала центральным элементом его нового альбома с давними соавторами, басистом Джеком Даро и барабанщиком Дином Коба.

Отношения Рейтана с Даро и Кобой начались в начале 1990-х, когда он посещал программу музыкальной композиции Университета Южной Калифорнии. После окончания учебы Рейтан обратился к паре за помощью в создании демо-записи для участия в Большом американском конкурсе джазовых пианистов. С тех пор трио регулярно работает вместе, органично развиваясь на протяжении многих лет с открытым и свежим подходом, особенно в отношении оригинальной музыки Рейтана - независимо от того, насколько сложными или требовательными могут быть произведения.

Выступление трио в Dizzy’s было долгожданным возвращением в Нью-Йорк, поскольку два десятилетия назад они были финалистами конкурса Hennessey Cognac Jazz Search. Энергия последнего концерта в Нью-Йорке подтолкнула Рейтана к написанию музыки для нового альбома. В итоге он сочинил восемь пьес, опираясь на его потрясающие джазовые навыки и его любовь к классической музыке. В дополнение к своим произведениям Рейтан включил несколько избранных произведений известных композиторов, представляющих как джазовые, так и классические идиомы.

Запись начинается с «Хиндемита» Рейтана, движущей силы, вдохновленной гармоническим и ритмическим выбором немецкого композитора Пауля Хиндемита из его известных фортепианных сонат. Заглавная композиция «West 60th» вальсирует с ноу-хау большого города. Красивая баллада Бобби Хатчерсона «When You Are Near» расцветает как цветок и идеально соответствует эстетике Рейтана, поскольку Хатчерсон, как известно, применил стиль импрессиониста Эрика Сати в своих работах. Гармонично авантюрный «Momentum» - это забавная головоломка для ансамбля, в то время как относительно малоизвестная баллада Херби Хэнкока «Little One» сначала преследует, прежде чем перейти в среднетемповый свинг.

«Линии» Рейтана - это увлекательная и динамичная пьеса, построенная на контрапункте баса и фортепиано. «Luminosity» - это гармонично насыщенная баллада с замысловатым внутренним звучанием фортепиано. Сияющий и гипнотический «Fluence» черпает вдохновение в работах художника Джаспера Джонса конца 1950-х годов. «Четыре фортепианных блюза, часть № 3» Аарона Копленда возникли в том же году, что и Концерт для кларнета Копленда для Бенни Гудмана, и являются пробным камнем причастности композитора к джазу. Рейтан исполняет синюю пьесу в точности так, как она была написана. Трио пересматривает «Man Overboard», более раннюю композицию Reitan, которая по-прежнему впечатляет, и прекрасный «Epilogue» - это всего лишь тихая песня, написанная для завершения альбома.

Сочетание элегантного сочинения музыки и игры всегда было отличительной чертой привлекательности Грега Рейтана. Тот факт, что он продолжал долгие и прибыльные отношения с Джеком Даро и Дином Коба на протяжении более 25 лет, следует отметить, и что может быть лучше, чем с потрясающим 60-м Западным положением этого трио.

https://gregreitan.bandcamp.com/album/west-60th

Лог проверки качества
foobar2000 1.3.16 / Dynamic Range Meter 1.1.1
log date: 2019-06-05 18:04:33

--------------------------------------------------------------------------------
Analyzed: Greg Reitan / West 60th
--------------------------------------------------------------------------------

DR         Peak         RMS     Duration Track
--------------------------------------------------------------------------------
DR8       -0.77 dB   -11.17 dB      3:04 01-Hindemith
DR11      -0.78 dB   -14.80 dB      4:25 02-West 60th
DR14      -0.78 dB   -18.19 dB      4:48 03-When You Are Near
DR11      -0.78 dB   -13.34 dB      3:31 04-Momentum
DR12      -0.78 dB   -16.06 dB      5:17 05-Little One
DR9       -0.70 dB   -11.91 dB      3:09 06-Lines
DR11      -0.78 dB   -14.81 dB      5:52 07-Luminosity
DR12      -0.78 dB   -15.83 dB      3:34 08-Fluence
DR17      -0.78 dB   -22.60 dB      2:43 09-Four Piano Blues, Movement No. 3
DR10      -0.77 dB   -12.59 dB      4:21 10-Man Overboard
DR13      -0.78 dB   -15.74 dB      4:45 11-Epilogue
--------------------------------------------------------------------------------

Number of tracks:  11
Official DR value: DR12

Samplerate:        44100 Hz
Channels:          2
Bits per sample:   24
Bitrate:           1405 kbps
Codec:             FLAC
================================================================================
Приватный:
Нет (DHT включён)
Размер:
481.46 Мб (504,843,018 байт) » файлов: 13
Участники:
6 раздают, 0 качают (6 участников всего)
Внешние участники:
--- [ Обновить ]
No seeders - write personal message to M0p94ok. Any questions - support@pro-jazz.com.
Нет сидеров - пишите в личку M0p94ok. Есть вопросы - support@pro-jazz.com
10:29
46
Нет комментариев. Ваш будет первым!