Поиск

1996 Richie Cole - West Side Story (2017) {Venus} [DSD64 ISO]

1996 Richie Cole - West Side Story (2017) {Venus} [DSD64 ISO]
Стили:
Дата записи диска:
28 марта и 29 марта 1996
Место записи:
Clinton Studio "B", New York City, NY, USA
Издатель (лейбл):
Номер по каталогу:
VHGD-253
Битрейт аудио:
lossless
Лог проверки качества
foobar2000 1.6.4 / Dynamic Range Meter 1.1.1
log date: 2021-02-28 19:33:43

--------------------------------------------------------------------------------
Analyzed: RICHIE COLE / West Side Story
--------------------------------------------------------------------------------

DR         Peak         RMS     Duration Track
--------------------------------------------------------------------------------
DR11      -4.19 dB   -17.74 dB      8:42 01-Something's Coming
DR10      -4.95 dB   -17.02 dB      5:09 02-America
DR11      -4.87 dB   -18.86 dB      4:30 03-Maria
DR9       -4.79 dB   -16.26 dB      7:05 04-I Feel Pretty
DR11      -4.32 dB   -19.00 dB      9:22 05-Cool & Jet Song
DR10      -4.73 dB   -17.31 dB      5:50 06-Tonight
DR10      -4.29 dB   -18.20 dB      3:59 07-Somewhere
DR10      -4.06 dB   -15.65 dB      7:07 08-West Side Blues
--------------------------------------------------------------------------------

Number of tracks:  8
Official DR value: DR10

Samplerate:        2822400 Hz / PCM Samplerate: 352800 Hz
Channels:          2
Bits per sample:   1
Bitrate:           5645 kbps
Codec:             DSD64
================================================================================
No seeders - write personal message to M0p94ok. Any questions - support@pro-jazz.com.
Нет сидеров - пишите в личку M0p94ok. Есть вопросы - support@pro-jazz.com
09:57
87
Нет комментариев. Ваш будет первым!