Поиск

2021 Ismail Sentissi Trio - Genoma {jazz family} [24-88.2]

2021 Ismail Sentissi Trio - Genoma {jazz family} [24-88.2]
Место записи:
Studio de Meudon, Paris, France
Дата издания диска:
16 апреля 2021
Носитель:
WEB
Формат:
PCM
Тип рипа:
tracks
Контейнер:
FLAC (*.flac)
Количество каналов:
2.0
Разрядность/ЧД:
24/88,2
Битрейт аудио:
lossless
Время звучания:
00:52:09
Наличие сканов:
только обложка
Релизёр (источник):
soloneba
Лог проверки качества
foobar2000 1.1.15 / Dynamic Range Meter 1.1.1
log date: 2021-05-15 17:12:51

--------------------------------------------------------------------------------
Analyzed: Ismail Sentissi Trio / Genoma
--------------------------------------------------------------------------------

DR         Peak         RMS     Duration Track
--------------------------------------------------------------------------------
DR9       -1.33 dB   -14.48 dB      4:34 01-Vent sourd
DR9       -1.33 dB   -14.12 dB      4:47 02-Semelles de plomb
DR8       -2.08 dB   -13.69 dB      4:33 03-Silences d'Oumma
DR11      -1.33 dB   -15.61 dB      3:31 04-Tuk tuk
DR10      -1.34 dB   -15.34 dB      4:25 05-Genoma
DR12      -1.33 dB   -17.59 dB      1:37 06-Flocon
DR9       -1.33 dB   -16.00 dB      4:37 07-Ethiopique
DR11      -1.33 dB   -18.13 dB      2:01 08-In Other Wise
DR8       -1.33 dB   -13.04 dB      3:47 09-Cafouillages
DR9       -1.33 dB   -14.11 dB      4:05 10-Aît tamejjout
DR10      -1.65 dB   -15.19 dB      5:04 11-Aniss
DR11      -1.33 dB   -18.23 dB      9:08 12-Absence
--------------------------------------------------------------------------------

Number of tracks:  12
Official DR value: DR10

Samplerate:        88200 Hz
Channels:          2
Bits per sample:   24
Bitrate:           1901 kbps
Codec:             FLAC
================================================================================
No seeders - write personal message to M0p94ok. Any questions - support@pro-jazz.com.
Нет сидеров - пишите в личку M0p94ok. Есть вопросы - support@pro-jazz.com
22:32
69
Нет комментариев. Ваш будет первым!