Поиск

2019 Kaïros - White Spots on a Map {Galileo Music Communication} [24-88.2]

2019 Kaïros - White Spots on a Map {Galileo Music Communication} [24-88.2]
Стили:
Дата издания диска:
22 ноября 2019
Номер по каталогу:
GMV093
Носитель:
WEB
Формат:
PCM
Тип рипа:
tracks
Контейнер:
FLAC (*.flac)
Количество каналов:
2.0
Разрядность/ЧД:
24/88,2
Битрейт аудио:
lossless
Время звучания:
00:56:43
Наличие сканов:
только обложка
Страна-производитель диска (релиза):
Germany
Релизёр (источник):
M0p94ok
Лог проверки качества
foobar2000 1.6.2 / Dynamic Range Meter 1.1.1
log date: 2021-08-25 12:44:29

--------------------------------------------------------------------------------
Analyzed: Kaïros / White Spots on a Map
--------------------------------------------------------------------------------

DR         Peak         RMS     Duration Track
--------------------------------------------------------------------------------
DR10      -0.20 dB   -14.11 dB      6:50 01-Old Story
DR11      -0.20 dB   -14.37 dB      5:10 02-2nd Coffee
DR10      -0.20 dB   -14.94 dB      8:42 03-White Spots on a Map
DR12      -0.20 dB   -15.22 dB      6:08 04-Friend or Foe
DR9       -0.20 dB   -12.52 dB      4:21 05-Chasing the Wind
DR11      -0.20 dB   -14.34 dB      6:14 06-Out of Sight
DR11      -0.20 dB   -15.57 dB      6:05 07-Unter Freiem Himmel
DR9       -0.20 dB   -13.41 dB      7:21 08-Außer Atem
DR10      -0.20 dB   -14.31 dB      5:56 09-Über Der Stadt
--------------------------------------------------------------------------------

Number of tracks:  9
Official DR value: DR10

Samplerate:        88200 Hz
Channels:          2
Bits per sample:   24
Bitrate:           1062 kbps
Codec:             FLAC
================================================================================
No seeders - write personal message to M0p94ok. Any questions - support@pro-jazz.com.
Нет сидеров - пишите в личку M0p94ok. Есть вопросы - support@pro-jazz.com
12:58
42
Нет комментариев. Ваш будет первым!