Поиск

1967 Sonny Rollins - Rollins in Holland (2020) {Resonance} [24-96]

1967 Sonny Rollins - Rollins in Holland (2020) {Resonance} [24-96]
Дата записи диска:
3 мая 1967
Дата переиздания диска:
4 декабря 2020
Издатель (лейбл):
Носитель:
WEB
Формат:
PCM
Тип рипа:
tracks
Контейнер:
FLAC (*.flac)
Количество каналов:
2.0
Разрядность/ЧД:
24/96
Битрейт аудио:
lossless
Время звучания:
02:09:45
Наличие сканов:
только обложка
Страна-производитель диска (релиза):
USA
Релизёр (источник):
latimer
Лог проверки качества
foobar2000 1.4.3 / Dynamic Range Meter 1.1.1
log date: 2021-05-15 12:35:14

--------------------------------------------------------------------------------
Analyzed: Sonny Rollins / Rollins in Holland: The 1967 Studio & Live Recordings
--------------------------------------------------------------------------------

DR         Peak         RMS     Duration Track
--------------------------------------------------------------------------------
DR7       -2.95 dB   -11.87 dB      4:49 01-Blue Room (Recorded at VARA Studio 5 in Hilversum, The Netherlands on May 5, 1967)
DR8       -1.88 dB   -11.87 dB      5:14 02-Four (Recorded at VARA Studio 5 in Hilversum, The Netherlands on May 5, 1967)
DR7       -2.29 dB   -12.01 dB      6:04 03-Love Walked In (Recorded at VARA Studio 5 in Hilversum, The Netherlands on May 5, 1967)
DR7       -1.88 dB   -11.66 dB      6:57 04-Tune Up (Recorded at VARA Studio 5 in Hilversum, The Netherlands on May 5, 1967)
DR7       -2.31 dB   -11.59 dB      8:13 05-Sonnymoon For Two (Recorded at the Go-Go Club in Loosdrecht, The Netherlands on May 3, 1967)
DR7       -1.88 dB   -12.30 dB      9:31 06-Love Walked In (Recorded at the Go-Go Club in Loosdrecht, The Netherlands on May 3, 1967)
DR7       -1.88 dB    -9.77 dB     22:25 07-Three Little Words (Recorded Live at Academie voor Beeldende Kunst in Arnhem, The Netherlands on May 3, 1967)
DR6       -1.88 dB   -10.21 dB      9:34 08-They Can't That Away From Me/Sonnymoon for Two (Recorded Live at Academie voor Beeldende Kunst in Arnhem, The Netherlands on May 3, 1967)
DR8       -1.88 dB   -11.44 dB     14:59 09-On Green Dolphin St/There Will Never Be Another You (Recorded Live at Academie voor Beeldende Kunst in Arnhem, The Netherlands on May 3, 1967)
DR7       -2.23 dB   -11.14 dB     19:45 10-Love Walked In (Recorded Live at Academie voor Beeldende Kunst in Arnhem, The Netherlands on May 3, 1967)
DR7       -2.31 dB   -11.22 dB     22:19 11-Four (Recorded Live at Academie voor Beeldende Kunst in Arnhem, The Netherlands on May 3, 1967)
--------------------------------------------------------------------------------

Number of tracks:  11
Official DR value: DR7

Samplerate:        96000 Hz
Channels:          2
Bits per sample:   24
Bitrate:           2883 kbps
Codec:             FLAC
================================================================================
No seeders - write personal message to M0p94ok. Any questions - support@pro-jazz.com.
Нет сидеров - пишите в личку M0p94ok. Есть вопросы - support@pro-jazz.com
16:35
32
Нет комментариев. Ваш будет первым!