Поиск

2019 Laszlo Gardony - La Marseillaise {Sunnyside} [24-48]

2019 Laszlo Gardony - La Marseillaise {Sunnyside} [24-48]
Стили:
Дата записи диска:
12 марта 2019
Место записи:
David Friend Recital Hall, Berklee, Boston
Дата издания диска:
25 октября 2019
Номер по каталогу:
SSC 4034
Носитель:
WEB
Формат:
PCM
Тип рипа:
tracks
Контейнер:
FLAC (*.flac)
Количество каналов:
2.0
Разрядность/ЧД:
24/48
Битрейт аудио:
lossless
Время звучания:
00:39:59
Наличие сканов:
только обложка
Страна-производитель диска (релиза):
USA
Релизёр (источник):
M0p94ok
Лог проверки качества
foobar2000 1.6.2 / Dynamic Range Meter 1.1.1
log date: 2021-08-25 21:44:29

--------------------------------------------------------------------------------
Analyzed: Laszlo Gardony / La Marseillaise
--------------------------------------------------------------------------------

DR         Peak         RMS     Duration Track
--------------------------------------------------------------------------------
DR12      -1.21 dB   -15.27 dB      5:02 01-Revolution
DR10      -1.85 dB   -14.30 dB      5:04 02-O Solo Mio
DR10      -1.21 dB   -13.54 dB      4:37 03-Four Notes Given
DR10      -1.53 dB   -15.25 dB      6:00 04-Misty
DR11      -1.21 dB   -14.86 dB      4:51 05-Quiet Now
DR10      -1.21 dB   -12.59 dB      5:49 06-On The Spot
DR10      -1.74 dB   -14.69 dB      4:23 07-Mockingbird
DR10      -1.21 dB   -12.50 dB      4:14 08-Bourbon Street Boogie
--------------------------------------------------------------------------------

Number of tracks:  8
Official DR value: DR10

Samplerate:        48000 Hz
Channels:          2
Bits per sample:   24
Bitrate:           1468 kbps
Codec:             FLAC
================================================================================
No seeders - write personal message to M0p94ok. Any questions - support@pro-jazz.com.
Нет сидеров - пишите в личку M0p94ok. Есть вопросы - support@pro-jazz.com
22:10
82
22:11