Поиск

1961 Tubby Hayes - Tubbs (2019) {Decca, UMO} [24-88.2]

1961 Tubby Hayes - Tubbs (2019) {Decca, UMO} [24-88.2]
Стили:
Дата издания диска:
1 июня 1961
Издатель (лейбл):
Носитель:
WEB
Формат:
PCM
Тип рипа:
tracks
Контейнер:
FLAC (*.flac)
Количество каналов:
2.0
Разрядность/ЧД:
24/88,2
Битрейт аудио:
lossless
Время звучания:
00:42:56
Наличие сканов:
только обложка
Страна-производитель диска (релиза):
USA
Релизёр (источник):
latimer
Лог проверки качества
foobar2000 1.3.7 / Dynamic Range Meter 1.1.1
log date: 2019-12-28 13:38:12

--------------------------------------------------------------------------------
Analyzed: Tubby Hayes / Tubbs (Remastered 2019)
--------------------------------------------------------------------------------

DR         Peak         RMS     Duration Track
--------------------------------------------------------------------------------
DR9       -1.10 dB   -13.68 dB      3:51 01-The Late One
DR9       -1.05 dB   -13.03 dB      2:58 02-Love Walked In
DR11      -1.83 dB   -16.78 dB      3:51 03-S'posin'
DR10      -1.15 dB   -14.33 dB      4:01 04-Tubbsville
DR9       -0.98 dB   -15.02 dB      5:25 05-R.T.H.
DR10      -2.50 dB   -15.02 dB      3:34 06-Cherokee
DR11      -1.82 dB   -16.92 dB      6:56 07-Falling In Love With Love
DR9       -5.78 dB   -18.16 dB      4:09 08-The Folks Who Live On The Hill
DR9       -2.18 dB   -14.10 dB      8:15 09-Wonderful! Wonderful!
--------------------------------------------------------------------------------

Number of tracks:  9
Official DR value: DR10

Samplerate:        88200 Hz
Channels:          2
Bits per sample:   24
Bitrate:           3312 kbps
Codec:             FLAC
================================================================================
No seeders - write personal message to M0p94ok. Any questions - support@pro-jazz.com.
Нет сидеров - пишите в личку M0p94ok. Есть вопросы - support@pro-jazz.com
18:28
43
Нет комментариев. Ваш будет первым!