Поиск

1983 Chris Connor - Live (2019) {Applause} [24-44.1]

1983 Chris Connor - Live (2019) {Applause} [24-44.1]
Стили:
Дата издания диска:
11 июля 1983
Носитель:
WEB
Формат:
PCM
Тип рипа:
tracks
Контейнер:
FLAC (*.flac)
Количество каналов:
2.0
Разрядность/ЧД:
24/44,1
Битрейт аудио:
lossless
Время звучания:
00:40:07
Наличие сканов:
только обложка
Страна-производитель диска (релиза):
USA
Релизёр (источник):
latimer
Лог проверки качества
foobar2000 1.4.3 / Dynamic Range Meter 1.1.1
log date: 2021-05-05 18:16:54

--------------------------------------------------------------------------------
Analyzed: Chris Connor / Live
--------------------------------------------------------------------------------

DR         Peak         RMS     Duration Track
--------------------------------------------------------------------------------
DR11      -1.17 dB   -14.57 dB      3:07 01-I Hear the Music Now (Live)
DR12      -1.17 dB   -16.80 dB      4:35 02-Good Morning Heartache (Live)
DR11      -1.17 dB   -14.93 dB      3:27 03-It Might as Well Be Spring (Live)
DR11      -1.17 dB   -13.98 dB      1:48 04-Things Are Swingin' (Live)
DR15      -1.17 dB   -21.44 dB      3:32 05-Where Flamingos Fly (Live)
DR12      -1.17 dB   -14.74 dB      2:51 06-All or Nothing at All (Live)
DR12      -1.17 dB   -16.02 dB      2:32 07-Lover (Live)
DR12      -1.17 dB   -14.93 dB      2:16 08-Get out of Town (Live)
DR16      -1.17 dB   -22.78 dB      2:59 09-All About Ronnie (Live)
DR12      -1.17 dB   -16.48 dB      3:39 10-Any Place I Hang My Hat is Home (Live)
DR13      -1.17 dB   -16.31 dB      3:13 11-Just in Time (Live)
DR16      -1.17 dB   -22.77 dB      3:10 12-Glad to Be Unhappy (Live)
DR12      -1.17 dB   -15.36 dB      3:04 13-Poor Little Rich Girl (Live)
--------------------------------------------------------------------------------

Number of tracks:  13
Official DR value: DR13

Samplerate:        44100 Hz
Channels:          2
Bits per sample:   24
Bitrate:           1446 kbps
Codec:             FLAC
================================================================================
No seeders - write personal message to M0p94ok. Any questions - support@pro-jazz.com.
Нет сидеров - пишите в личку M0p94ok. Есть вопросы - support@pro-jazz.com
19:06
49
Нет комментариев. Ваш будет первым!