Поиск

2019 Makoto Kuriya, Koichi Osamu, Hiroyuki Noritake - Acoustic Weather Report 2 {Sony} [24-96]

2019 Makoto Kuriya, Koichi Osamu, Hiroyuki Noritake - Acoustic Weather Report 2 {Sony} [24-96]
Стили:
Дата издания диска:
27 ноября 2019
Издатель (лейбл):
Номер по каталогу:
SIXX06208B00Z
Носитель:
WEB
Формат:
PCM
Тип рипа:
tracks
Контейнер:
FLAC (*.flac)
Количество каналов:
2.0
Разрядность/ЧД:
24/96
Битрейт аудио:
lossless
Время звучания:
00:51:18
Наличие сканов:
только обложка
Страна-производитель диска (релиза):
Japan
Релизёр (источник):
M0p94ok
Лог проверки качества
foobar2000 1.6.2 / Dynamic Range Meter 1.1.1
log date: 2021-08-26 22:30:15

--------------------------------------------------------------------------------
Analyzed: Makoto Kuriya / Acoustic Weather Report 2
--------------------------------------------------------------------------------

DR         Peak         RMS     Duration Track
--------------------------------------------------------------------------------
DR9       -0.11 dB   -12.73 dB      4:17 01-River People
DR9       -0.11 dB   -11.86 dB      4:32 02-Donna Lee
DR7       -0.11 dB    -8.74 dB      4:23 03-Black Market
DR7       -0.11 dB   -11.36 dB      6:24 04-Lusitanos
DR7       -0.11 dB    -9.74 dB      5:07 05-Barbary Coast
DR9       -0.11 dB   -11.80 dB      6:45 06-Man In The Green Shirt
DR6       -0.11 dB   -10.42 dB      6:21 07-Badia - Three Views Of A Secret
DR6       -0.11 dB    -7.78 dB      4:33 08-Between The Thighs
DR8       -0.11 dB   -10.12 dB      6:25 09-Deep Insight(<News 1930> TV Theme Ver)
DR11      -0.12 dB   -13.23 dB      2:31 10-Deep Insight(<News 1930> TV End Theme Ver)
--------------------------------------------------------------------------------

Number of tracks:  10
Official DR value: DR8

Samplerate:        96000 Hz
Channels:          2
Bits per sample:   24
Bitrate:           4616 kbps
Codec:             FLAC
================================================================================
No seeders - write personal message to M0p94ok. Any questions - support@pro-jazz.com.
Нет сидеров - пишите в личку M0p94ok. Есть вопросы - support@pro-jazz.com
22:50
46
Нет комментариев. Ваш будет первым!