Поиск

1971 Dave Pike Set - Album (2014) {MPS Classical} [24-88.2]

1971 Dave Pike Set - Album (2014) {MPS Classical} [24-88.2]
Дата записи диска:
16 марта 1971
Место записи:
MPS Studio, Villingen, Germany
Дата переиздания диска:
31 января 2014
Издатель (лейбл):
Носитель:
WEB
Формат:
PCM
Тип рипа:
tracks
Контейнер:
FLAC (*.flac)
Количество каналов:
2.0
Разрядность/ЧД:
24/88,2
Битрейт аудио:
lossless
Время звучания:
00:41:29
Наличие сканов:
только обложка
Страна-производитель диска (релиза):
Germany
Релизёр (источник):
latimer
Лог проверки качества
foobar2000 1.4.3 / Dynamic Range Meter 1.1.1
log date: 2021-05-08 12:59:11

--------------------------------------------------------------------------------
Analyzed: Dave Pike Set / Album
--------------------------------------------------------------------------------

DR         Peak         RMS     Duration Track
--------------------------------------------------------------------------------
DR11      -2.07 dB   -14.41 dB      4:06 01-Big Schlepp
DR11      -2.90 dB   -16.66 dB      2:45 02-Country Shit Explicit
DR12      -5.89 dB   -20.26 dB      3:25 03-King of the Tumbas
DR10      -1.87 dB   -13.82 dB      7:11 04-Papa Joy
DR12      -3.55 dB   -21.52 dB      2:50 05-Toys
DR10      -1.94 dB   -15.41 dB      6:06 06-Hongkong Woman
DR10      -1.20 dB   -15.56 dB      5:11 07-Times out of Mind
DR11      -2.92 dB   -17.41 dB      3:56 08-Inside Crime
DR11      -2.16 dB   -17.17 dB      6:04 09-Greasy Spoon Blues
--------------------------------------------------------------------------------

Number of tracks:  9
Official DR value: DR11

Samplerate:        88200 Hz
Channels:          2
Bits per sample:   24
Bitrate:           2560 kbps
Codec:             FLAC
================================================================================
No seeders - write personal message to M0p94ok. Any questions - support@pro-jazz.com.
Нет сидеров - пишите в личку M0p94ok. Есть вопросы - support@pro-jazz.com
09:36
42
Нет комментариев. Ваш будет первым!