Поиск

1962 Tubby Hayes - Tubbs In N.Y. (2019) {Decca, UMO} [24-88.2]

1962 Tubby Hayes - Tubbs In N.Y. (2019) {Decca, UMO} [24-88.2]
Стили:
Дата издания диска:
1 апреля 1962
Носитель:
WEB
Формат:
PCM
Тип рипа:
tracks
Контейнер:
FLAC (*.flac)
Количество каналов:
2.0
Разрядность/ЧД:
24/88,2
Битрейт аудио:
lossless
Время звучания:
00:44:56
Наличие сканов:
только обложка
Страна-производитель диска (релиза):
USA
Релизёр (источник):
latimer
Лог проверки качества
foobar2000 1.3.7 / Dynamic Range Meter 1.1.1
log date: 2019-12-28 12:59:56

--------------------------------------------------------------------------------
Analyzed: Tubby Hayes / Tubbs In N.Y. (Remastered 2019)
--------------------------------------------------------------------------------

DR         Peak         RMS     Duration Track
--------------------------------------------------------------------------------
DR11      -1.35 dB   -14.53 dB      4:40 01-You For Me
DR13      -0.02 dB   -15.54 dB      7:02 02-A Pint Of Bitter
DR12      -0.02 dB   -14.38 dB      8:56 03-Airegin
DR12      -0.19 dB   -14.26 dB      7:31 04-Opus Ocean
DR12      -0.02 dB   -14.23 dB      7:36 05-Soon
DR13      -0.02 dB   -16.18 dB      9:16 06-Doxy
--------------------------------------------------------------------------------

Number of tracks:  6
Official DR value: DR12

Samplerate:        88200 Hz
Channels:          2
Bits per sample:   24
Bitrate:           2842 kbps
Codec:             FLAC
================================================================================
No seeders - write personal message to M0p94ok. Any questions - support@pro-jazz.com.
Нет сидеров - пишите в личку M0p94ok. Есть вопросы - support@pro-jazz.com
15:28
40
Нет комментариев. Ваш будет первым!