Поиск

2020 Zhlehtet - Toyomi {Rok Zalokar} [24-44.1]

2020 Zhlehtet - Toyomi {Rok Zalokar} [24-44.1]
Дата издания диска:
10 июля 2020
Носитель:
WEB
Формат:
PCM
Тип рипа:
tracks
Контейнер:
FLAC (*.flac)
Количество каналов:
2.0
Разрядность/ЧД:
24/44,1
Битрейт аудио:
lossless
Время звучания:
00:37:33
Наличие сканов:
только обложка
Доп. инфо:

響 み (Тоёми) - старое японское слово, означающее звук / эхо, а в некотором контексте - большой звук и люди, смеющиеся вместе.

«Жлехтет» - это последний снимок художественного видения Рока Залокара, и его было бы более уместно назвать творческим процессом, чем музыкальным коллективом или сольным продюсерским проектом. Документация его работы в качестве куратора и импровизатора на музыкальной сцене Любляны и в целом жизни как творческой личности, пытающейся поделиться своим голосом в современном мире.
Инструментальные импровизации записывались либо в студии с солистами, исполняющими определенные правила, либо в виде коллективных импровизаций, исполняемых вживую на домашних концертах. Эти выступления вводились в аналоговое оборудование, тщательно организовывались и обрабатывались, искажались, нарезались и накладывались на слои с дальнейшими импровизациями, будь то события в звуковом дизайне или дополнительные музыкальные постановки ».

https://rokzalokar.bandcamp.com/album/toyomi

Лог проверки качества
foobar2000 1.6.2 / Dynamic Range Meter 1.1.1
log date: 2021-05-15 10:54:34

--------------------------------------------------------------------------------
Analyzed: Zhlehtet / Toyomi
--------------------------------------------------------------------------------

DR         Peak         RMS     Duration Track
--------------------------------------------------------------------------------
DR5       -0.03 dB    -7.09 dB      4:07 01-Circular Being
DR5       -0.03 dB    -6.78 dB      3:36 02-Spiritual Blackout
DR7       -0.03 dB   -10.21 dB      5:20 03-Gifts from the Holy Three Kings
DR6       -0.03 dB    -7.27 dB      3:31 04-Tic Tac Universe
DR8       -0.03 dB   -11.25 dB      0:59 05-Inner Mission
DR5       -0.03 dB    -6.47 dB      3:33 06-Some Skunk
DR5       -0.03 dB    -8.65 dB      5:15 07-The Condition of Truth
DR7       -0.03 dB   -10.35 dB      2:51 08-Safety Check
DR5       -0.03 dB    -6.99 dB      3:29 09-Electric Safety
DR5       -0.03 dB    -7.53 dB      6:54 10-Garden Mist
DR5       -0.03 dB    -6.22 dB      8:10 11-Don't Quixote
--------------------------------------------------------------------------------

Number of tracks:  11
Official DR value: DR6

Samplerate:        44100 Hz
Channels:          2
Bits per sample:   24
Bitrate:           1619 kbps
Codec:             FLAC
================================================================================
No seeders - write personal message to M0p94ok. Any questions - support@pro-jazz.com.
Нет сидеров - пишите в личку M0p94ok. Есть вопросы - support@pro-jazz.com
14:47
40
Нет комментариев. Ваш будет первым!