Вы используете незарегистрированную версию компонента "Вкладки"!

Поиск

2020 VA - Quiet There: The Best of Ballads on Resonance {Resonance} [24-44.1]

2020 VA - Quiet There: The Best of Ballads on Resonance {Resonance} [24-44.1]
Стили:
Дата издания диска:
22 мая 2020
Издатель (лейбл):
Носитель:
WEB
Формат:
PCM
Тип рипа:
tracks
Контейнер:
FLAC (*.flac)
Количество каналов:
2.0
Разрядность/ЧД:
24/44,1
Битрейт аудио:
lossless
Время звучания:
00:54:29
Наличие сканов:
только обложка
Страна-производитель диска (релиза):
USA
Релизёр (источник):
Stephenten
Лог проверки качества
foobar2000 1.4.8 / Dynamic Range Meter 1.1.1
log date: 2021-05-15 11:28:55

--------------------------------------------------------------------------------
Analyzed: Angela Hagenbach / Quiet There: The Best of Ballads on Resonance (1-2)
          Cathy Rocco / Quiet There: The Best of Ballads on Resonance (3-4)
          Greta Matassa / Quiet There: The Best of Ballads on Resonance (5-6)
          João Gilberto / Quiet There: The Best of Ballads on Resonance (7)
          Kathy Kosins / Quiet There: The Best of Ballads on Resonance (8)
          Shirley Horn / Quiet There: The Best of Ballads on Resonance (9-10)
--------------------------------------------------------------------------------

DR         Peak         RMS     Duration Track
--------------------------------------------------------------------------------
DR9       -1.06 dB   -12.31 dB      4:21 01-Quietly There
DR10      -1.06 dB   -13.16 dB      6:56 05-His Eyes, Her Eyes
DR10      -2.27 dB   -15.38 dB      7:00 02-Tea For Two
DR9       -4.49 dB   -16.88 dB      3:53 06-Hello Like Before
DR11      -1.54 dB   -15.70 dB      5:26 07-You’ll See
DR10      -1.50 dB   -13.98 dB      5:38 10-Chan’s Song
DR8       -0.25 dB   -11.39 dB      4:24 03-Rosa Morena
DR9       -0.45 dB   -11.83 dB      6:21 09-Where Are You?
DR12      -0.74 dB   -16.20 dB      5:27 04-Lover Man (Oh Where Can You Be?) (Live)
DR13      -0.74 dB   -17.92 dB      5:09 08-Just For A Thrill (Live)
--------------------------------------------------------------------------------

Number of tracks:  10
Official DR value: DR10
Samplerate:        44100 Hz
Channels:          2
Bits per sample:   24
Bitrate:           1434 kbps
Codec:             FLAC
================================================================================
Any questions - support@pro-jazz.com. Есть вопросы - support@pro-jazz.com
13:42
51
Нет комментариев. Ваш будет первым!