Поиск

2007 James Carney Group - Green-Wood {Songlines} [24-88.2]

2007 James Carney Group - Green-Wood {Songlines} [24-88.2]
Стили:
Дата записи диска:
24 июня - 25 июня 2006
Дата издания диска:
7 августа 2007
Носитель:
WEB
Формат:
PCM
Тип рипа:
tracks
Контейнер:
FLAC (*.flac)
Количество каналов:
2.0
Разрядность/ЧД:
24/88,2
Битрейт аудио:
lossless
Время звучания:
01:06:51
Наличие сканов:
буклет pdf
Страна-производитель диска (релиза):
USA
Релизёр (источник):
M0p94ok
Доп. инфо:

Один из самых многообещающих джазовых композиторов и клавишников, Джеймс Карни переехал из Лос-Анджелеса в Нью-Йорк в ноябре 2004 года. С тех пор он стал более заметным и играл со многими ведущими местными музыкантами, включая шестерых на этом компакт-диске. В то время как в музыке Карни есть моменты, когда кто-то немного напоминает внутреннюю / внешнюю музыку американского квинтета Кейта Джарретта 1970-х годов, большинство сочинений Карни более продвинуто и довольно непредсказуемо, следуя собственной логике. У каждого из валторнистов есть свои моменты в центре внимания, но сложные ансамбли, импрессионистские темы и разносторонняя работа Карни на фортепиано и электрической клавиатуре делают Green-Wood особенно особенным. Пока что все записи Джеймса Карни представляют собой качественные образцы современного творческого джаза.

Лог проверки качества
foobar2000 1.6.2 / Dynamic Range Meter 1.1.1
log date: 2021-08-24 12:55:20

--------------------------------------------------------------------------------
Analyzed: James Carney Group / Green-wood
--------------------------------------------------------------------------------

DR         Peak         RMS     Duration Track
--------------------------------------------------------------------------------
DR11      -0.05 dB   -13.44 dB      7:38 01-Power
DR12      -0.02 dB   -14.08 dB      8:24 02-Smog Cutter
DR11      -0.20 dB   -15.00 dB     12:46 03-It's Always Cold When You're Leaving
DR9       -0.15 dB   -13.60 dB      5:43 04-Shame
DR11      -0.12 dB   -13.35 dB      8:34 05-Williwaw
DR13      -0.25 dB   -17.30 dB      7:03 06-In Lieu of Crossroads
DR11      -0.17 dB   -14.03 dB      8:57 07-The Poetry Wall
DR11      -0.16 dB   -13.93 dB      7:47 08-Half the Battle
--------------------------------------------------------------------------------

Number of tracks:  8
Official DR value: DR11

Samplerate:        88200 Hz
Channels:          2
Bits per sample:   24
Bitrate:           2690 kbps
Codec:             FLAC
================================================================================
No seeders - write personal message to M0p94ok. Any questions - support@pro-jazz.com.
Нет сидеров - пишите в личку M0p94ok. Есть вопросы - support@pro-jazz.com
13:06
32
Нет комментариев. Ваш будет первым!