Поиск

2021 Benito Gonzalez - Sing To The World {Rainy Days} [24-96]

2021 Benito Gonzalez - Sing To The World {Rainy Days} [24-96]
Дата издания диска:
14 мая 2021
Носитель:
WEB
Формат:
PCM
Тип рипа:
tracks
Контейнер:
FLAC (*.flac)
Количество каналов:
2.0
Разрядность/ЧД:
24/96
Битрейт аудио:
lossless
Время звучания:
01:19:02
Наличие сканов:
только обложка
Страна-производитель диска (релиза):
USA
Релизёр (источник):
Stephenten
Лог проверки качества
foobar2000 1.4.8 / Dynamic Range Meter 1.1.1
log date: 2021-05-15 10:19:05

--------------------------------------------------------------------------------
Analyzed: Benito Gonzalez / Sing to the World
--------------------------------------------------------------------------------

DR         Peak         RMS     Duration Track
--------------------------------------------------------------------------------
DR8       -1.00 dB   -10.80 dB      4:56 01-Sounds of Freedom
DR8       -1.00 dB   -10.94 dB      9:01 02-Views of the Blues
DR10      -1.00 dB   -12.86 dB      6:34 03-Father
DR9       -1.00 dB   -12.71 dB      9:19 04-Offering
DR8       -1.00 dB   -11.57 dB     10:33 05-Visionary
DR8       -1.00 dB   -11.63 dB      5:48 06-Smile
DR9       -1.00 dB   -11.58 dB      9:18 07-Sing to the World
DR12      -1.00 dB   -15.93 dB      8:22 08-412
DR8       -1.00 dB   -11.04 dB      7:36 09-Flatbush Avenue
DR9       -1.00 dB   -12.27 dB      7:39 10-Colors
--------------------------------------------------------------------------------

Number of tracks:  10
Official DR value: DR9
Samplerate:        96000 Hz
Channels:          2
Bits per sample:   24
Bitrate:           3232 kbps
Codec:             FLAC
===============================================================================
No seeders - write personal message to M0p94ok. Any questions - support@pro-jazz.com.
Нет сидеров - пишите в личку M0p94ok. Есть вопросы - support@pro-jazz.com
12:15
30
Нет комментариев. Ваш будет первым!