Поиск

2021 Alex Sipiagin - Upstream {Posi Tone} [24-88.2]

2021 Alex Sipiagin - Upstream {Posi Tone} [24-88.2]
Дата записи диска:
24 октября - 25 октября 2020
Место записи:
Acoustic Recording, Brooklyn, NY
Дата издания диска:
7 мая 2021
Издатель (лейбл):
Номер по каталогу:
PR8219
Носитель:
WEB
Формат:
PCM
Тип рипа:
tracks
Контейнер:
FLAC (*.flac)
Количество каналов:
2.0
Разрядность/ЧД:
24/88,2
Битрейт аудио:
lossless
Время звучания:
00:54:50
Наличие сканов:
только обложка
Страна-производитель диска (релиза):
USA
Релизёр (источник):
latimer
Доп. инфо:

Сенсация трубы Alex Sipiagin направляет свое внимание и намерение "Upstream", направляя энергичное сочувствие своей музыки на увлечение сердец и умы поклонников джаза на своем первом альбоме Posi-Tone. Источая уверенность и легкую виртуозность, Сипягин играет на своем инструменте убедительным и эмоциональным голосом, который явно возвышает и отличает его от способных современников. В этом музыкальном путешествии к Сипиагину присоединяется постоянно работающая и надежно изобретательная ритм-секция Posi-Tone, состоящая из пианиста Арта Хирахара, басиста Бориса Козлова и барабанщика Руди Ройстона. Обладая элегантным лиризмом, Сипягин неуклонно ведет группу вперед, исследуя гармонические страны чудес, которые ясно отражают его современную мелодичную недиатоническую джазовую чувствительность. Благодаря продуманной программе оригинальных композиций и аранжировок, Алекс Сипягин явно ослабляет свой фокус "Upstream" и успешно предоставляет поклонникам джаза во всем мире удивительное множество захватывающих течений и ярких моментов, которые можно лелеять и наслаждаться.

"Upstream представляет собой динамичный проект и знакомит нас с превосходным игровым стилем Сипягина. Сипягин находится на вершине своей игры, и его второстепенные персонажи столь же смелы и проницательны. в рамках проекта". (Нолан Дебюк, thejazzword.com)

Лог проверки качества
foobar2000 1.6.2 / Dynamic Range Meter 1.1.1
log date: 2021-08-24 08:57:09

--------------------------------------------------------------------------------
Analyzed: Ibrahim Maalouf / Diagnostic
--------------------------------------------------------------------------------

DR         Peak         RMS     Duration Track
--------------------------------------------------------------------------------
DR14      -5.07 dB   -25.38 dB      2:08 01-Lily (Is 2)
DR10      -0.26 dB   -14.15 dB      5:31 02-Will Soon Be a Woman
DR12      -7.90 dB   -27.21 dB      1:20 03-Intro
DR10      -0.25 dB   -12.95 dB      6:41 04-Maeva in Wonderland
DR11      -0.38 dB   -16.92 dB      2:23 05-Your Soul
DR11      -0.26 dB   -16.86 dB      7:04 06-Everything or Nothing
DR10      -0.26 dB   -12.10 dB      4:25 07-Never Serious
DR9       -0.21 dB   -10.67 dB      4:26 08-They Don't Care About Us
DR10      -0.25 dB   -12.75 dB      5:45 09-Douce
DR10      -0.26 dB   -14.36 dB     11:01 10-All the Beautiful Things
DR12      -2.06 dB   -17.77 dB      2:52 11-Diagnostic
DR8       -0.15 dB   -12.51 dB     10:39 12-Beirut
--------------------------------------------------------------------------------

Number of tracks:  12
Official DR value: DR11

Samplerate:        44100 Hz
Channels:          2
Bits per sample:   24
Bitrate:           1420 kbps
Codec:             FLAC
================================================================================
No seeders - write personal message to M0p94ok. Any questions - support@pro-jazz.com.
Нет сидеров - пишите в личку M0p94ok. Есть вопросы - support@pro-jazz.com
09:22
32
Нет комментариев. Ваш будет первым!