Поиск

2021 Freddy Randall - Shine On {Nagel Heyer} [24-44,1]

2021 Freddy Randall - Shine On {Nagel Heyer} [24-44,1]
Дата издания диска:
14 апреля 2021
Издатель (лейбл):
Носитель:
WEB
Формат:
PCM
Тип рипа:
tracks
Контейнер:
FLAC (*.flac)
Количество каналов:
2.0
Разрядность/ЧД:
24/44,1
Битрейт аудио:
lossless
Время звучания:
01:05:34
Наличие сканов:
только обложка

01. Someday Sweetheart  03:02
02. Copenhagen  02:50
03. Way Down Yonder in New Orleans  03:29
04. Twelve for Six  02:51
05. Washington and Lee Swing  02:27
06. Hotter Than That  02:56
07. Baby, Won't You Please Come Home  02:34
08. I'm Coming Virginia  02:32
09. Professor Jazz  02:50
10. Muskrat Ramble  02:27
11. Tin Roof Blues  03:08
12. Carolina in the Morning  03:04
13. Shine  02:56
14. Farewell Blues  02:35
15. Sunday  03:06
16. Black and Blue  02:58
17. Hindustan  02:56
18. Riverboat Shuffle  02:49
19. Royal Garden Blues  02:52
20. Won't You Come Home, Bill Bailey  03:01
21. Memphis Blues  02:55
22. My Tiny Band Is Chosen  02:33
23. Tight Lines  02:33

Лог проверки качества
foobar2000 1.4.2 / Dynamic Range Meter 1.1.1
log date: 2021-08-03 14:31:22
--------------------------------------------------------------------------------
Analyzed: Freddy Randall / Shine On
--------------------------------------------------------------------------------
DR         Peak         RMS     Duration Track
--------------------------------------------------------------------------------
DR10      -1.00 dB   -13.51 dB      3:03 01-Someday Sweetheart
DR10      -1.00 dB   -12.34 dB      2:51 02-Copenhagen
DR12      -1.00 dB   -14.89 dB      3:29 03-Way Down Yonder in New Orleans
DR10      -1.00 dB   -14.60 dB      2:51 04-Twelve for Six
DR8       -1.00 dB   -12.08 dB      2:27 05-Washington and Lee Swing
DR10      -1.00 dB   -13.30 dB      2:56 06-Hotter Than That
DR8       -1.00 dB   -11.22 dB      2:35 07-Baby, Won't You Please Come Home
DR10      -1.00 dB   -13.01 dB      2:32 08-I'm Coming Virginia
DR9       -1.00 dB   -13.13 dB      2:50 09-Professor Jazz
DR9       -1.00 dB   -11.44 dB      2:27 10-Muskrat Ramble
DR10      -1.00 dB   -13.77 dB      3:09 11-Tin Roof Blues
DR10      -1.00 dB   -12.61 dB      3:04 12-Carolina in the Morning
DR9       -1.00 dB   -11.92 dB      2:56 13-Shine
DR9       -1.00 dB   -12.26 dB      2:36 14-Farewell Blues
DR8       -1.00 dB   -11.53 dB      3:07 15-Sunday
DR9       -1.00 dB   -11.91 dB      2:58 16-Black and Blue
DR8       -1.00 dB   -11.11 dB      2:56 17-Hindustan
DR9       -1.00 dB   -11.52 dB      2:50 18-Riverboat Shuffle
DR8       -1.00 dB   -10.72 dB      2:52 19-Royal Garden Blues
DR8       -1.00 dB   -11.45 dB      3:02 20-Won't You Come Home, Bill Bailey
DR8       -1.00 dB   -11.10 dB      2:55 21-Memphis Blues
DR9       -1.00 dB   -10.85 dB      2:33 22-My Tiny Band Is Chosen
DR8       -1.00 dB   -10.74 dB      2:34 23-Tight Lines
--------------------------------------------------------------------------------
Number of tracks:  23
Official DR value: DR9
Samplerate:        44100 Hz
Channels:          2
Bits per sample:   24
Bitrate:           1301 kbps
Codec:             FLAC
================================================================================
Приватный:
Нет (DHT включён)
Размер:
641.91 Мб (673,093,644 байт) » файлов: 24
Участники:
0 раздают, 0 качают (0 участников всего)
Внешние участники:
1 раздают, 0 качают (1 участников всего) [ Обновить ]
14:59
465
Нет комментариев. Ваш будет первым!