Поиск

1956 Patty McGovern - Wednesday's Child (2021) {RevOla} [24-96]

1956 Patty McGovern - Wednesday's Child (2021) {RevOla} [24-96]
Стили:
Дата переиздания диска:
30 июля 2021
Издатель (лейбл):
Носитель:
WEB
Формат:
PCM
Тип рипа:
tracks
Контейнер:
FLAC (*.flac)
Количество каналов:
2.0
Разрядность/ЧД:
24/96
Битрейт аудио:
lossless
Время звучания:
00:38:43
Наличие сканов:
только обложка

01 - Hooray For Love! (02:42)
02 - Wednesday's Child (03:01)
03 - All In Fun (02:32)
04 - You Don't Know What Love Is (02:27)
05 - I Like Snow (02:50)
06 - Crazy He Calls Me (02:47)
07 - Lonely Town (04:02)
08 - Get Out Of Town (03:03)
09 - Love Isn't Everything (02:53)
10 - Winter Song (02:11)
11 - Will You Still Be Mine (01:38)
12 - Alone Together (02:59)
13 - Summer Rain (02:15)
14 - By Myself (03:21)

Состав:
  • Arranged By – Thomas Talbert
  • Drums – Osie Johnson
  • Guitar – Barry Galbraith
  • Trumpet – Joe Wilder
  • Vocals – Patty McGovern
Лог проверки качества
foobar2000 1.4.2 / Dynamic Range Meter 1.1.1
log date: 2021-08-03 14:32:03
--------------------------------------------------------------------------------
Analyzed: Patty McGovern / Wednesday's Child
--------------------------------------------------------------------------------
DR         Peak         RMS     Duration Track
--------------------------------------------------------------------------------
DR12      -1.74 dB   -16.79 dB      2:42 01-Hooray For Love! (Remastered)
DR12      -3.83 dB   -17.79 dB      3:01 02-Wednesday's Child (Remastered)
DR10      -1.84 dB   -15.12 dB      2:32 03-All In Fun (Remastered)
DR13      -1.98 dB   -19.62 dB      2:27 04-You Don't Know What Love Is (Remastered)
DR11      -2.80 dB   -16.48 dB      2:51 05-I Like Snow (Remastered)
DR11      -3.66 dB   -17.22 dB      2:48 06-Crazy He Calls Me (Remastered)
DR10      -4.75 dB   -17.26 dB      4:02 07-Lonely Town (Remastered)
DR12      -2.61 dB   -17.95 dB      3:04 08-Get Out Of Town (Remastered)
DR12      -4.96 dB   -19.03 dB      2:54 09-Love Isn't Everything (Remastered)
DR12      -5.19 dB   -20.00 dB      2:12 10-Winter Song (Remastered)
DR11      -3.49 dB   -19.27 dB      1:38 11-Will You Still Be Mine? (Remastered)
DR10      -5.56 dB   -18.74 dB      3:00 12-Alone Together (Remastered)
DR12      -4.00 dB   -20.70 dB      2:15 13-Summer Rain (Remastered)
DR11      -2.37 dB   -15.57 dB      3:22 14-By Myself (Remastered)
--------------------------------------------------------------------------------
Number of tracks:  14
Official DR value: DR12
Samplerate:        96000 Hz
Channels:          2
Bits per sample:   24
Bitrate:           1779 kbps
Codec:             FLAC
================================================================================
13:16
501
Нет комментариев. Ваш будет первым!