Поиск

2021 Demetrius Nabors - Perseverance {Kolorful} [24-44.1]

2021 Demetrius Nabors - Perseverance {Kolorful} [24-44.1]
Стили:
Дата издания диска:
23 июня 2021
Номер по каталогу:
KEL-8882
Носитель:
WEB
Формат:
PCM
Тип рипа:
tracks
Контейнер:
FLAC (*.flac)
Количество каналов:
2.0
Разрядность/ЧД:
24/44,1
Битрейт аудио:
lossless
Время звучания:
00:43:11
Наличие сканов:
только обложка

01 - Prelude 2014 (01:09)
02 - Funk InFusion (04:22)
03 - Sensuality (05:39)
04 - Into the Light (feat. Althea Rene) (03:56)
05 - Too Comfortable (feat. Anesha Birchett) (04:28)
06 - Get on the Floor (04:15)
07 - Overjoyed (feat. Doobie Powell) (04:56)
08 - Sugar Love (04:36)
09 - Shine (feat. Randy Scott) (03:46)
10 - Perseverance (04:07)
11 - Get on the Floor (Reprise) (01:53)

Лог проверки качества
foobar2000 1.4.2 / Dynamic Range Meter 1.1.1
log date: 2021-08-03 14:28:15
--------------------------------------------------------------------------------
Analyzed: Demetrius Nabors / Perseverance
--------------------------------------------------------------------------------
DR         Peak         RMS     Duration Track
--------------------------------------------------------------------------------
DR8       -1.20 dB   -10.85 dB      1:10 01-Prelude: 2014
DR8       -1.20 dB   -11.08 dB      4:23 02-Funk InFusion
DR8       -1.20 dB   -11.31 dB      5:39 03-Sensuality
DR7       -1.50 dB   -10.46 dB      3:57 04-Into the Light (feat. Althea Rene)
DR7       -1.20 dB   -10.57 dB      4:29 05-Too Comfortable (feat. Anesha Birchett)
DR9       -1.20 dB   -11.19 dB      4:16 06-Get on the Floor
DR8       -1.20 dB   -10.68 dB      4:56 07-Overjoyed (feat. Doobie Powell)
DR8       -1.20 dB   -11.16 dB      4:37 08-Sugar Love
DR7       -1.20 dB    -9.79 dB      3:46 09-Shine (feat. Randy Scott)
DR9       -1.20 dB   -13.02 dB      4:07 10-Perseverance
DR8       -1.60 dB   -11.95 dB      1:54 11-Get on the Floor (Reprise)
--------------------------------------------------------------------------------
Number of tracks:  11
Official DR value: DR8
Samplerate:        44100 Hz
Channels:          2
Bits per sample:   24
Bitrate:           1607 kbps
Codec:             FLAC
================================================================================
16:33
401
Нет комментариев. Ваш будет первым!