Поиск

1955 Carole Creveling - Here Comes Carole Creveling, Vol. 1 (2021) {RevOla} [24-96]

1955 Carole Creveling - Here Comes Carole Creveling, Vol. 1 (2021) {RevOla} [24-96]
Стили:
Дата переиздания диска:
30 июля 2021
Издатель (лейбл):
Носитель:
WEB
Формат:
PCM
Тип рипа:
tracks
Контейнер:
FLAC (*.flac)
Количество каналов:
2.0
Разрядность/ЧД:
24/96
Битрейт аудио:
lossless
Время звучания:
00:47:58
Наличие сканов:
только обложка

Треклист:

01. My Old Flame  03:12
02. My Ship  03:07
03. You Have Cast Your Shadow On The Sea  03:28
04. Better Luck Next Time  02:50
05. Long Ago  03:10
06. Star Eyes  05:14
07. This Heart Of Mine  03:53
08. One Morning In May  03:42
09. Now We Know  02:42
10. Nobody Else But Me  02:57
11. Anything Can Happen With You  03:21
12. There's No You  04:56
13. Willow Weep For Me  03:06
14. Between The Devil And The Deep Blue Sea  02:13

Состав:
  •     Bass – Jack Coughlan
  •     Drums – Bob Norris
  •     Guitar – Jimmy Wyble
  •     Piano – Bill Baker
Лог проверки качества
foobar2000 1.4.2 / Dynamic Range Meter 1.1.1
log date: 2021-08-03 14:24:11
--------------------------------------------------------------------------------
Analyzed: Carole Creveling / Here Comes Carole Creveling Vol.1
--------------------------------------------------------------------------------
DR         Peak         RMS     Duration Track
--------------------------------------------------------------------------------
DR12      -0.06 dB   -15.74 dB      3:12 01-My Old Flame (Remastered)
DR11       0.00 dB   -12.93 dB      3:07 02-My Ship (Remastered)
DR10      -0.37 dB   -14.69 dB      3:29 03-You Have Cast Your Shadow On The Sea (Remastered)
DR11      -0.13 dB   -13.22 dB      2:51 04-Better Luck Next Time (Remastered)
DR11      -1.71 dB   -15.40 dB      3:11 05-Long Ago (Remastered)
DR12      -0.32 dB   -15.82 dB      5:15 06-Star Eyes (Remastered)
DR12      -0.66 dB   -16.34 dB      3:53 07-This Heart Of Mine (Remastered)
DR12      -0.29 dB   -14.37 dB      3:42 08-One Morning In May (Remastered)
DR11      -0.69 dB   -16.10 dB      2:42 09-Now We Know (Remastered)
DR12      -0.36 dB   -14.00 dB      2:58 10-Nobody Else But Me (Remastered)
DR13      -0.79 dB   -15.94 dB      3:21 11-Anything Can Happen With You (Remastered)
DR12      -0.75 dB   -16.15 dB      4:57 12-There's No You (Remastered)
DR11      -1.52 dB   -15.22 dB      3:07 13-Willow Weep For Me (Remastered)
DR12      -0.31 dB   -13.81 dB      2:13 14-Between The Devil And The Deep Blue Sea (Remastered)
--------------------------------------------------------------------------------
Number of tracks:  14
Official DR value: DR11
Samplerate:        96000 Hz
Channels:          2
Bits per sample:   24
Bitrate:           1326 kbps
Codec:             FLAC
================================================================================
По всем вопросам пишите личное сообщение пользователю M0p94ok.
21:19
172
Нет комментариев. Ваш будет первым!