Поиск

2021 Farnell Newton - Feel the Love {Posi-Tone} [24-88.2]

2021 Farnell Newton - Feel the Love {Posi-Tone} [24-88.2]
Стили:
Дата записи диска:
21 июня 2018 - 17 сентября 2019
Место записи:
Acoustic Recording, Brooklyn, NY
Дата издания диска:
15 октября 2021
Издатель (лейбл):
Носитель:
WEB
Формат:
PCM
Тип рипа:
tracks
Контейнер:
FLAC (*.flac)
Количество каналов:
2.0
Разрядность/ЧД:
24/88,2
Битрейт аудио:
lossless
Время звучания:
00:58:48
Наличие сканов:
только обложка

01 - Feel The Love 04:43
02 - Affectionately Roy 04:16
03 - I'll Catch You 04:50
04 - A Child Not Yet Born 05:13
05 - The Bluest Eyes 06:34
06 - Litoral 06:52
07 - Pale 06:06
08 - The Force Of Gravity 04:34
09 - Laws Of Motion 04:37
10 - Lawn Darts 05:19
11 - Our Chosen Family 05:44

Состав:
  • Farnell Newton — trumpet
  • Art Hirahara — piano
  • Boris Kozlov — bass
  • Rudy Royston — drums & percussion on all but 4, 6, 9
  • Braxton Cook — alto saxophone on 2, 10
  • Jaleel Shaw — alto saxophone on 3, 5, 7
  • Joe Strasser — drums on 4, 6, 9
  • Brandon Wright — tenor saxophone on 4
  • Patrick Cornelius — alto saxophone on 6, 9
  • Michael Dease — trombone on 7
  • Marc Free — producer
  • Nick O’Toole — engineer
  • mixed & mastered at Woodland Studio, Lake Oswego, OR
Лог проверки качества
foobar2000 1.4.3 / Dynamic Range Meter 1.1.1
log date: 2021-12-05 13:44:44
--------------------------------------------------------------------------------
Analyzed: Farnell Newton / Feel the Love
--------------------------------------------------------------------------------
DR         Peak         RMS     Duration Track
--------------------------------------------------------------------------------
DR11      -1.01 dB   -13.36 dB      4:44 01-Feel The Love
DR10      -1.01 dB   -13.28 dB      4:16 02-Affectionately Roy
DR10      -1.01 dB   -12.45 dB      4:50 03-I'll Catch You
DR11      -1.01 dB   -14.63 dB      5:13 04-A Child Not Yet Born
DR10      -1.01 dB   -12.66 dB      6:34 05-The Bluest Eyes
DR10      -1.01 dB   -13.26 dB      6:53 06-Litoral
DR10      -1.01 dB   -12.77 dB      6:06 07-Pale
DR11      -1.01 dB   -15.12 dB      4:35 08-The Force Of Gravity
DR11      -1.01 dB   -13.12 dB      4:37 09-Laws Of Motion
DR10      -1.01 dB   -13.79 dB      5:20 10-Lawn Darts
DR10      -1.01 dB   -13.51 dB      5:44 11-Our Chosen Family
--------------------------------------------------------------------------------
Number of tracks:  11
Official DR value: DR10
Samplerate:        88200 Hz
Channels:          2
Bits per sample:   24
Bitrate:           2606 kbps
Codec:             FLAC
================================================================================
Приватный:
Нет (DHT включён)
Размер:
1.11 Гб (1,194,753,814 байт) » файлов: 16
Участники:
0 раздают, 0 качают (0 участников всего)
Внешние участники:
3 раздают, 1 качают (4 участников всего) [ Обновить ]
17:44
549
Нет комментариев. Ваш будет первым!