Поиск

2014 Volker Kriegel feat. Wolfgang Schlüter - House-Boat {MPS} [24-88,2]

2014 Volker Kriegel feat. Wolfgang Schlüter - House-Boat {MPS} [24-88,2]
Стили:
Дата издания диска:
31 января 2014
Издатель (лейбл):
Носитель:
WEB
Формат:
PCM
Тип рипа:
tracks
Контейнер:
FLAC (*.flac)
Количество каналов:
2.0
Разрядность/ЧД:
24/88,2
Битрейт аудио:
lossless
Наличие сканов:
только обложка

01. House-Boat [08:21]
02. Are You Really Living Next to Me? [03:57]
03. Achterbahn [05:07]
04. See the Changes [01:50]
05. In Your Way [05:01]
06. Your Face, Your Voice [04:26]
07. Chateau Sentimental [05:23]
08. Memory Delay [04:57]

Состав:
  • Banjo, Percussion, Acoustic Guitar – Volker Kriegel
  • Bass Guitar, Piano, Acoustic Guitar, Timbales, Percussion, Bass, Synthesizer, Electric Guitar – Hansi Ströer
  • Brass – Bertil Strandberg
  • Brass [Mini-Brass-Section] – Ack Van Rooyen
  • Maracas, Congas, Maracas – Elmer Louis
  • Cymbal, Drums – Evert Fraterman
  • Drums – Ralf-R. Hübner
  • Piano, Electric Piano, Synthesizer, Clavinet – Thomas Bettermann
  • Marimba [Marimbaphone], Congas – Wolfgang Schlüter
Лог проверки качества
foobar2000 1.6.8 / Dynamic Range Meter 1.1.1
log date: 2021-12-05 17:57:30
--------------------------------------------------------------------------------
Analyzed: Volker Kriegel feat. Wolfgang Schlüter / House-Boat (Remastered)
--------------------------------------------------------------------------------
DR         Peak         RMS     Duration Track
--------------------------------------------------------------------------------
DR12      -0.51 dB   -15.76 dB      8:21 01-House-Boat
DR10      -4.38 dB   -18.87 dB      3:57 02-Are You Really Living Next to Me?
DR12      -0.91 dB   -16.13 dB      5:07 03-Achterbahn
DR11      -6.64 dB   -22.02 dB      1:50 04-See the Changes
DR10      -3.77 dB   -17.41 dB      5:01 05-In Your Way
DR11      -5.55 dB   -19.30 dB      4:26 06-Your Face, Your Voice
DR10      -5.29 dB   -19.11 dB      5:23 07-Chateau Sentimental
DR12      -2.01 dB   -16.49 dB      4:57 08-Memory Delay
--------------------------------------------------------------------------------
Number of tracks:  8
Official DR value: DR11
Samplerate:        88200 Hz
Channels:          2
Bits per sample:   24
Bitrate:           2574 kbps
Codec:             FLAC
================================================================================
18:53
470
Нет комментариев. Ваш будет первым!