Поиск

2013 Jacob Fischer Trio - My Romance {Venus} [DSD64 ISO]

2013 Jacob Fischer Trio - My Romance {Venus} [DSD64 ISO]
Стили:
Дата записи диска:
20 июня - 21 июня 2013
Место записи:
Trading 8s Studio, New York
Издатель (лейбл):
Номер по каталогу:
VHGD-155
Носитель:
SACD
Формат:
DSD
Тип рипа:
image
Контейнер:
ISO (*.iso)
Количество каналов:
2.0
Разрядность/ЧД:
64 (2,8 MHz/1 Bit)
Битрейт аудио:
lossless
Время звучания:
01:04:39
Наличие сканов:
только обложка

01. You And The Night And The Music  05:27
02. Haunted Heart  04:29
03. Nardis  05:26
04. I Fall In Love Too Easily  03:45
05. Show Type Tune  03:39
06. My Foolish Heart  07:04
07. Interplay  03:56
08. My Romance  04:45
09. Time Remembered  06:39
10. Waltz For Debby  06:39
11. How My Heart Sings  04:31
12. Come Rain Or Come Shine  05:52
13. Polkadots And Moonbeams  02:40

Состав:
  • Jacob Fischer — guitar
  • Martin Wind — bass
  • Tim Horner — drums
Лог проверки качества
foobar2000 1.6.8 / Dynamic Range Meter 1.1.1
log date: 2021-12-05 12:35:17
--------------------------------------------------------------------------------
Analyzed: JACOB FISCHER TRIO / My Romance
--------------------------------------------------------------------------------
DR         Peak         RMS     Duration Track
--------------------------------------------------------------------------------
DR6       -5.23 dB   -12.11 dB      5:26 01-You And The Night And The Music
DR6       -5.44 dB   -12.89 dB      4:27 02-Haunted Heart
DR6       -5.21 dB   -12.65 dB      5:25 03-Nardis
DR6       -4.93 dB   -12.59 dB      3:44 04-I Fall In Love Too Easily
DR6       -4.35 dB   -12.41 dB      3:38 05-Show Type Tune
DR6       -4.94 dB   -12.68 dB      7:03 06-My Foolish Heart
DR6       -5.00 dB   -12.31 dB      3:54 07-Interplay
DR6       -5.00 dB   -12.00 dB      4:44 08-My Romance
DR6       -5.87 dB   -13.74 dB      6:38 09-Time Remembered
DR6       -4.95 dB   -11.87 dB      6:38 10-Waltz For Debby
DR6       -4.74 dB   -12.07 dB      4:29 11-How My Heart Sings
DR6       -4.99 dB   -12.36 dB      5:51 12-Come Rain Or Come Shine
DR6       -5.55 dB   -12.64 dB      2:41 13-Polka Dots And Moonbeams
--------------------------------------------------------------------------------
Number of tracks:  13
Official DR value: DR6
Samplerate:        2822400 Hz / PCM Samplerate: 88200 Hz
Channels:          2
Bits per sample:   1
Bitrate:           5645 kbps
Codec:             DSD64
================================================================================
15:18
415
Нет комментариев. Ваш будет первым!