Поиск

2021 Emiliano Gonzalez Toro & Thomas Enhco - Violeta y el Jazz {naïve} [24-88.2]

2021 Emiliano Gonzalez Toro & Thomas Enhco - Violeta y el Jazz {naïve} [24-88.2]
Стили:
Дата издания диска:
21 мая 2021
Издатель (лейбл):
Носитель:
WEB
Формат:
PCM
Тип рипа:
tracks
Контейнер:
FLAC (*.flac)
Количество каналов:
2.0
Разрядность/ЧД:
24/88,2
Битрейт аудио:
lossless
Время звучания:
00:52:23
Наличие сканов:
буклет pdf
Страна-производитель диска (релиза):
Chile
Релизёр (источник):
ЯOR
Доп. инфо:

"Виолета Парра - легенда. Ее жизнь, ее работа и личность, которой она была, продолжают очаровывать публику через пятьдесят лет после ее трагической кончины. Она бродила по стране в поисках забытых народных песен Чили, становясь непреклонной посланницей неприхотливой культуры популярной музыки. Самоучка, она научилась петь, писать, играть на арфе и гитаре. Ее грубый голос запечатлел историю написания песен в Латинской Америке и за ее пределами: без Виолетты не было бы ни Джоан Баез, ни Боба. Дилан! Она изобрела и транслировала то, что произвело революцию в популярной музыке 60-х: фолк.

Песни Виолетты прекрасны: Volver a los 17, Según el Favor del Viento ... и международный гимн, которым сегодня является Gracias a la Vida. Как сын чилийских родителей, я вырос на песнях Виолетты Парра; Я знаю их как свои пять пальцев, как и многие другие латиноамериканцы моего поколения. В ознаменование 50-летия ее кончины я пригласил пианиста Томаса Энко вместе с другими известными артистами разделить со мной сцену и отдать дань уважения ее жизни песнями. Его джазовые и поэтические аранжировки Run Run se fue pa’l Norte были для меня, как и для публики, настоящим откровением, моментом сильных эмоций. Песни Виолетты вечны, их красота не высечена на камне, и в них живет чудо непрерывного обновления. Кажется, они были написаны так, чтобы быть изобретенными заново. Сегодняшнее поколение находит не меньше радости, чем предыдущее, когда погружается в эту насыщенную музыку со свежестью новой перспективы. Violeta Meets Jazz находится на перекрестке между музыкальным гением, чистым, как необработанный алмаз, и тонкой, но фантастической вселенной, наполненной гармоничным воображением. Хочется верить, что ей бы понравился этот проект ».

https://www.highresaudio.com/en/album/view/5k5q9k/emiliano-gonzalez-toro-thomas-enhco-violeta-y-el-jazz

Лог проверки качества
foobar2000 1.4.2 / Dynamic Range Meter 1.1.1
log date: 2021-05-22 13:32:32

--------------------------------------------------------------------------------
Analyzed: Emiliano Gonzalez Toro & Thomas Enhco / Violeta y el Jazz
--------------------------------------------------------------------------------

DR         Peak         RMS     Duration Track
--------------------------------------------------------------------------------
DR10      -0.31 dB   -14.78 dB      7:31 01-Volver a los 17
DR10      -0.21 dB   -12.37 dB      5:32 02-Ecoute moi petit
DR13      -0.32 dB   -18.38 dB      3:46 03-Gracias a la Vida (Lento)
DR7       -0.21 dB   -10.68 dB      5:27 04-Maldigo del Alto Cielo
DR13      -1.45 dB   -17.47 dB      5:10 05-La Jardinera
DR12      -0.32 dB   -17.08 dB      5:30 06-Run Run Se Fue Pa'L Norte
DR9       -0.21 dB   -12.23 dB      5:15 07-SegГєn el Favor del Viento
DR12      -0.32 dB   -16.74 dB      5:21 08-Une chilienne Г  Paris
DR13      -0.32 dB   -17.96 dB      4:31 09-Porque los Pobres No Tienen
DR8       -0.22 dB   -12.08 dB      4:22 10-Gracias a la Vida
--------------------------------------------------------------------------------

Number of tracks:  10
Official DR value: DR11

Samplerate:        88200 Hz
Channels:          2
Bits per sample:   24
Bitrate:           2603 kbps
Codec:             FLAC
================================================================================
No seeders - write personal message to M0p94ok. Any questions - support@pro-jazz.com.
Нет сидеров - пишите в личку M0p94ok. Есть вопросы - support@pro-jazz.com
23:12
31
Нет комментариев. Ваш будет первым!