Поиск

2020 Pablo Held - Ascent {Edition} [24-96]

2020 Pablo Held - Ascent {Edition} [24-96]
Дата записи диска:
25 июня - 27 июня 2019
Место записи:
Riverside Studios Cologne
Дата издания диска:
7 февраля 2020
Носитель:
WEB
Формат:
PCM
Тип рипа:
tracks
Контейнер:
FLAC (*.flac)
Количество каналов:
2.0
Разрядность/ЧД:
24/96
Битрейт аудио:
lossless
Время звучания:
00:46:51
Наличие сканов:
только обложка
Страна-производитель диска (релиза):
Germany
Релизёр (источник):
M0p94ok
Доп. инфо:

Новый альбом Пабло Хельда, Ascent, его второй для Edition Records, является результатом сотрудничества его давнего трио (с басистом Робертом Ландферманном и барабанщиком Джонасом Бургвинкелем) и великим бразильским гитаристом Нельсоном Верасом. Считающийся одним из самых талантливых и предприимчивых пианистов и импровизаторов в Европе, Пабло Хельд завоевывает огромную репутацию не только как выдающийся пианист, но и благодаря своей значительной музыкальности, энергии и склонности к риску. Ascent - долгожданный новый альбом, следующий за их 10-м альбомом Investigations, получивший международную признательность за его замечательное качество, глубокую коммуникацию и лирическую элегантность, побудив All About Jazz описать группу как «трио исключительных талантов мирового уровня». Новый альбом представляет собой глубоко удовлетворяющее сочетание мощной и выразительной музыки, связанной с трио Пабло Хельда, и плавного изобретения гитарных стилей Нельсона Вераса.

https://www.highresaudio.com/en/album/view/qvwmhy/pablo-held-trio-ascent

Лог проверки качества
foobar2000 1.6.2 / Dynamic Range Meter 1.1.1
log date: 2021-09-12 10:26:53

--------------------------------------------------------------------------------
Analyzed: Pablo Held / Ascent
--------------------------------------------------------------------------------

DR         Peak         RMS     Duration Track
--------------------------------------------------------------------------------
DR13      -1.00 dB   -16.32 dB      5:13 01-Unlocking Mechanism
DR13      -1.00 dB   -17.01 dB      4:17 02-Dikkedeo
DR12      -1.00 dB   -15.22 dB      5:13 03-Poem #6
DR13      -1.00 dB   -17.42 dB      6:51 04-Forest Spirits
DR11      -1.00 dB   -15.82 dB      6:59 05-Ascent
DR14      -1.11 dB   -18.44 dB      4:15 06-Seizing
DR14      -1.00 dB   -17.13 dB      8:10 07-Musica Callada #24
DR13      -1.04 dB   -17.15 dB      4:47 08-Excerpt from Piano Concerto #4
DR10      -1.00 dB   -12.44 dB      1:07 09-52nd Street Theme
--------------------------------------------------------------------------------

Number of tracks:  9
Official DR value: DR12

Samplerate:        96000 Hz
Channels:          2
Bits per sample:   24
Bitrate:           2815 kbps
Codec:             FLAC
================================================================================
No seeders - write personal message to M0p94ok. Any questions - support@pro-jazz.com.
Нет сидеров - пишите в личку M0p94ok. Есть вопросы - support@pro-jazz.com
10:33
23
Нет комментариев. Ваш будет первым!