Поиск

2020 Ole Amund Gjersvik Trio - Live at Kabuso {Acoustic} [24-44.1]

2020 Ole Amund Gjersvik Trio - Live at Kabuso {Acoustic} [24-44.1]
Стили:
Дата записи диска:
8 ноября 2019
Место записи:
Kabuso, Øystese, Norway
Дата издания диска:
7 февраля 2020
Носитель:
WEB
Формат:
PCM
Тип рипа:
tracks
Контейнер:
FLAC (*.flac)
Количество каналов:
2.0
Разрядность/ЧД:
24/44,1
Битрейт аудио:
lossless
Время звучания:
00:50:44
Наличие сканов:
только обложка
Страна-производитель диска (релиза):
Norway
Релизёр (источник):
M0p94ok
Лог проверки качества
foobar2000 1.6.2 / Dynamic Range Meter 1.1.1
log date: 2021-09-11 14:46:04

--------------------------------------------------------------------------------
Analyzed: Ole Amund Gjersvik Trio / Live at Kabuso
--------------------------------------------------------------------------------

DR         Peak         RMS     Duration Track
--------------------------------------------------------------------------------
DR16       0.00 dB   -20.81 dB      8:35 01-Summertime (Live at Kabuso, Øystese - Norway. November 8. 2019)
DR13       0.00 dB   -16.01 dB      5:44 02-Bluesette (Live at Kabuso, Øystese - Norway. November 8. 2019)
DR14       0.00 dB   -17.60 dB      7:44 03-Nardis (Live at Kabuso, Øystese - Norway. November 8. 2019)
DR15       0.00 dB   -20.20 dB      8:54 04-Solar (Live at Kabuso, Øystese - Norway. November 8. 2019)
DR18       0.00 dB   -23.04 dB      9:56 05-Alice In Wonderland (Live at Kabuso, Øystese - Norway. November 8. 2019)
DR15       0.00 dB   -20.76 dB      9:51 06-Stella By Starlight (Live at Kabuso, Øystese - Norway. November 8. 2019)
--------------------------------------------------------------------------------

Number of tracks:  6
Official DR value: DR15

Samplerate:        44100 Hz
Channels:          2
Bits per sample:   24
Bitrate:           1164 kbps
Codec:             FLAC
================================================================================
No seeders - write personal message to M0p94ok. Any questions - support@pro-jazz.com.
Нет сидеров - пишите в личку M0p94ok. Есть вопросы - support@pro-jazz.com
22:10
35
Нет комментариев. Ваш будет первым!