Поиск

2021 Electric Kif - Dreamlike {La Reserve} [24-44.1]

2021 Electric Kif - Dreamlike {La Reserve} [24-44.1]
Стили:
Место записи:
Spanish Castle Music, The Hobbit, Trip; The Pitch studios in Miami, Fl
Дата издания диска:
6 августа 2021
Носитель:
WEB
Формат:
PCM
Тип рипа:
tracks
Контейнер:
FLAC (*.flac)
Количество каналов:
2.0
Разрядность/ЧД:
24/44,1
Битрейт аудио:
lossless
Время звучания:
00:33:50
Наличие сканов:
только обложка

Треклист:

01. Sonar    04:18
Eric Escanes - Guitar
Armando Lopez - Drums, 808
Jason Matthews - Rhodes, Organ, Korg MS 10, Motif, Micro Korg
Rodrigo Zambrano - Bass, Guitar
02. Marrakush  04:24
Eric Escanes - Guitar
Armando Lopez - Drums, Organ
Jason Matthews - Moog Opus, Korg MS10, Rhodes, Prophet
Rodrigo Zambrano - Bass, MiniMoog, Sampler
03. Dreamlike (feat. Aaron Parks)  05:42
Eric Escanes - Guitar, 12 String, Sampler
Armando Lopez - Drums, Percussion, Cooking sheet
Jason Matthews - Prophet, synth pads
Rodrigo Zambrano - Fretless Bass, Korg Minilogue intro, Moog Bass, Lighter
Brian Potts - Crash
Aaron Parks - Keyboard solo
04. F.M.B.  03:56
Eric Escanes - Guitar, Taishokoto
Armando Lopez - Drums
Jason Matthews - Korg MS-10, Organ, Prophet
Rodrigo Zambrano - Bass, Rhodes, Korg Minilogue, Moog Bass, Sampler
05. Boo Boo  04:09
Eric Escanes - Guitar, Sampler
Armando Lopez - Drums
Jason Matthews - Korg MS10
Rodrigo Zambrano - Minimoog, Mellotron Flute, Sampler
Smurphio - Korg Minilogue
06. Language Of The Unheard   03:49
Eric Escanes - Guitar, Sampler
Armando Lopez - Drums, Vocals
Jason Matthews - Piano, Korg Ms-10
Rodrigo Zambrano - Fretless Bass, Guitar, Mellotron
Brian Potts - Crash
Hainbach - Isolation loops
07. Anthem  04:09
Eric Escanes - Guitar, Taishokoto
Armando Lopez - Drums, Tambourine, Shells, Moog synth, Rhodes, Bass
Jason Matthews - Prophet, Organ, Rhodes
Rodrigo Zambrano - Bass, Korg Minilogue, Rhodes, Sampler
Brian Potts - Crash
08. Insomnia (feat. Chris Bullock)  03:19
Eric Escanes - Guitar
Rodrigo Zambrano - Bass, Korg Minilogue, Sampler
Jason Matthews - Korg MS-10, Prophet
Armando Lopez - Drums
Brian Potts - Crash
Chris Bullock - Tenor Saxophone, Bass Clarinet, Piccolo, Alto, & Bass Flute

Лог проверки качества
foobar2000 1.4.2 / Dynamic Range Meter 1.1.1
log date: 2021-08-07 10:19:48
--------------------------------------------------------------------------------
Analyzed: Electric Kif / Dreamlike
--------------------------------------------------------------------------------
DR         Peak         RMS     Duration Track
--------------------------------------------------------------------------------
DR6       -0.50 dB    -8.52 dB      4:18 01-Sonar
DR7       -0.50 dB    -9.07 dB      4:25 02-Marrakush
DR5       -0.50 dB    -8.21 dB      5:42 03-Dreamlike
DR7       -0.50 dB    -9.26 dB      3:57 04-F.M.B.
DR5       -0.50 dB    -7.30 dB      4:09 05-Boo Boo
DR8       -0.50 dB   -10.29 dB      3:50 06-The Language Of The Unheard
DR6       -0.50 dB    -8.54 dB      4:10 07-Anthem
DR6       -0.50 dB    -9.12 dB      3:20 08-Insomnia
--------------------------------------------------------------------------------
Number of tracks:  8
Official DR value: DR6
Samplerate:        44100 Hz
Channels:          2
Bits per sample:   24
Bitrate:           1493 kbps
Codec:             FLAC
================================================================================
По всем вопросам пишите личное сообщение пользователю M0p94ok.
22:52
179
Нет комментариев. Ваш будет первым!