Поиск

2021 Boone Andries - T.I.M.E.L.A.P.S.E {Trad} [24-48]

2021 Boone Andries - T.I.M.E.L.A.P.S.E {Trad} [24-48]
Стили:
Дата издания диска:
06 августа 2021
Носитель:
WEB
Формат:
PCM
Тип рипа:
tracks
Контейнер:
FLAC (*.flac)
Количество каналов:
2.0
Разрядность/ЧД:
24/48
Битрейт аудио:
lossless
Время звучания:
00:26:55
Наличие сканов:
только обложка

Треклист:

01 - Sunrise (03:52)
02 - 10 AM (03:06)
03 - Midday (02:50)
04 - 2 PM (02:08)
05 - Early Sunset (02:43)
06 - 9 PM (002:19)
07 - 11 PM (02:45)
08 - Midnight (03:43)
09 - 2 AM (03:23)

Лог проверки качества
foobar2000 1.4.2 / Dynamic Range Meter 1.1.1
log date: 2021-08-07 10:16:21
--------------------------------------------------------------------------------
Analyzed: Boone Andries / T.I.M.E.L.A.P.S.E
--------------------------------------------------------------------------------
DR         Peak         RMS     Duration Track
--------------------------------------------------------------------------------
DR8       -1.12 dB   -12.17 dB      3:53 01-Sunrise
DR8       -1.12 dB   -11.66 dB      3:07 02-10 AM
DR7       -1.12 dB   -10.61 dB      2:51 03-Midday
DR9       -1.12 dB   -13.95 dB      2:09 04-2 PM
DR7       -1.12 dB   -11.20 dB      2:44 05-Early Sunset
DR10      -1.12 dB   -14.34 dB      2:20 06-9 PM
DR8       -1.12 dB   -12.58 dB      2:46 07-11 PM
DR7       -1.12 dB   -10.54 dB      3:44 08-Midnight
DR9       -1.12 dB   -14.07 dB      3:23 09-2 AM
--------------------------------------------------------------------------------
Number of tracks:  9
Official DR value: DR8
Samplerate:        48000 Hz
Channels:          2
Bits per sample:   24
Bitrate:           1469 kbps
Codec:             FLAC
================================================================================
По всем вопросам пишите личное сообщение пользователю M0p94ok.
21:49
150
Нет комментариев. Ваш будет первым!