Поиск

1966 Vince Guaraldi, Bola Sete - Live At El Matador (2016) {HDTT} [DXD352]

1966 Vince Guaraldi, Bola Sete - Live At El Matador (2016) {HDTT} [DXD352]
Место записи:
El Matador, San Francisco, USA
Носитель:
WEB
Формат:
PCM
Тип рипа:
tracks
Контейнер:
FLAC (*.flac)
Количество каналов:
2.0
Разрядность/ЧД:
24/352
Битрейт аудио:
lossless
Время звучания:
00:38:49
Наличие сканов:
только обложка
Треклист:

01. I'm A Loser
02. El Matador
03. People
04. Nobody Else
05. More
06. Favela
07. Black Orpheus Suite

Лог проверки качества
foobar2000 1.6.5 / Замер динамического диапазона (DR) 1.1.1
Дата отчёта:  2021-08-08 20:50:05
--------------------------------------------------------------------------------
Анализ:   Vince Guaraldi & Bola Sete / Vince Guaraldi & Bola Sete - Live At El Matador
--------------------------------------------------------------------------------
DR         Пики         RMS           Продолжительность трека
--------------------------------------------------------------------------------
DR12      -1.72 дБ   -17.61 дБ      2:44 01-I'm A Loser
DR11      -0.82 дБ   -15.75 дБ      4:37 02-El Matador
DR11      -0.25 дБ   -16.50 дБ      3:59 03-People
DR11      -3.16 дБ   -17.40 дБ      2:28 04-Nobody Else
DR12      -3.65 дБ   -19.13 дБ      4:39 05-More
DR13      -0.12 дБ   -17.86 дБ      9:03 06-Favela
DR13       0.00 дБ   -19.23 дБ     11:18 07-Black Orpheus Suite
--------------------------------------------------------------------------------
Количество треков: 7
Реальные значения DR: DR12
Частота:   352800 Гц
Каналов:   2
Разрядность:   24
Битрейт:   8329 кбит/с
Кодек:   FLAC
================================================================================
По всем вопросам пишите личное сообщение пользователю M0p94ok.
19:39
213
Нет комментариев. Ваш будет первым!