Поиск

2021 Diego Figueiredo - Antarctica {Arbors ARCD19474} [24-96]

2021 Diego Figueiredo - Antarctica {Arbors ARCD19474} [24-96]
Дата издания диска:
15 января 2021
Издатель (лейбл):
Номер по каталогу:
ARCD19474
Носитель:
WEB
Формат:
PCM
Тип рипа:
tracks+.cue
Контейнер:
APE (*.ape)
Количество каналов:
2.0
Разрядность/ЧД:
24/96
Битрейт аудио:
lossless
Время звучания:
00:57:28
Наличие сканов:
web
Релизёр (источник):
M0p94ok
Лог проверки качества
foobar2000 1.6.2 / Dynamic Range Meter 1.1.1
log date: 2021-01-19 20:59:11

--------------------------------------------------------------------------------
Analyzed: Diego Figueiredo / Antarctica
--------------------------------------------------------------------------------

DR         Peak         RMS     Duration Track
--------------------------------------------------------------------------------
DR10      -0.10 dB   -11.52 dB      6:44 01-Bled
DR9       -0.10 dB   -10.50 dB      2:59 02-Samba For Haroldo
DR10      -0.10 dB   -12.38 dB      5:18 03-Antarctica
DR10      -0.10 dB   -11.51 dB      3:46 04-Bryant Park
DR10      -0.10 dB   -12.52 dB      6:22 05-Seville
DR9       -0.10 dB   -10.63 dB      5:48 06-Light Wind
DR11      -0.10 dB   -12.68 dB      2:11 07-Caribbean Gonzaga
DR10      -0.10 dB   -12.25 dB      4:55 08-Edgewater Park
DR11      -0.10 dB   -12.72 dB      5:41 09-My Friend Menescal
DR10      -0.10 dB   -11.13 dB      4:00 10-Old Watch
DR10      -0.10 dB   -12.68 dB      4:54 11-From Rio To Paris
DR10      -0.10 dB   -12.14 dB      4:56 12-Alma
--------------------------------------------------------------------------------

Number of tracks:  12
Official DR value: DR10

Samplerate:        96000 Hz
Channels:          2
Bits per sample:   24
Bitrate:           2652 kbps
Codec:             FLAC
================================================================================
No seeders - write personal message to M0p94ok. Any questions - support@pro-jazz.com.
Нет сидеров - пишите в личку M0p94ok. Есть вопросы - support@pro-jazz.com
22:23
253
Нет комментариев. Ваш будет первым!