Поиск

2020 GoGo Penguin - Live from Studio 2 {Blue Note, Universal, Decca} [24-96]

2020 GoGo Penguin - Live from Studio 2 {Blue Note, Universal, Decca} [24-96]
Стили:
Издатель (лейбл):
Битрейт аудио:
lossless

Треклист:

1. Totem (3:53)
2. Petit_a (4:12)
3. Bardo (6:00)
4. Atomised (4:32)
5. F Maj Pixie (6:07)
6. Kora (5:42)
7. Protest (4:45)

Доп. инфо:

Формат записи/Источник записи: [TR24][OF]
Наличие водяных знаков: Нет
Год издания/переиздания диска: 2020
Продолжительность: 00:35:10
Наличие сканов в содержимом раздачи: Буклет PDF
Источник (релизер): highresaudio

Контейнер: FLAC (*.flac)
Тип рипа: tracks
Разрядность: 24/96
Формат: PCM
Количество каналов: 2.0

Лог проверки качества
foobar2000 1.6 / Dynamic Range Meter 1.1.1
log date: 2020-11-27 14:14:20

--------------------------------------------------------------------------------
Analyzed: GoGo Penguin / Live from Studio 2
--------------------------------------------------------------------------------

DR         Peak         RMS     Duration Track
--------------------------------------------------------------------------------
DR8       -0.40 dB   -10.61 dB      3:53 01-Totem (Live from Studio 2, Abbey Road Studios, London / 2020)
DR8       -0.40 dB   -10.49 dB      4:12 02-Petit_a (Live from Studio 2, Abbey Road Studios, London / 2020)
DR8       -0.40 dB   -11.34 dB      6:00 03-Bardo (Live from Studio 2, Abbey Road Studios, London / 2020)
DR8       -0.40 dB   -11.14 dB      4:32 04-Atomised (Live from Studio 2, Abbey Road Studios, London / 2020)
DR8       -0.40 dB   -10.81 dB      6:07 05-F Maj Pixie (Live from Studio 2, Abbey Road Studios, London / 2020)
DR8       -0.40 dB   -10.39 dB      5:42 06-Kora (Live from Studio 2, Abbey Road Studios, London / 2020)
DR7       -0.40 dB    -8.85 dB      4:45 07-Protest (Live from Studio 2, Abbey Road Studios, London / 2020)
--------------------------------------------------------------------------------

Number of tracks:  7
Official DR value: DR8

Samplerate:        96000 Hz
Channels:          2
Bits per sample:   24
Bitrate:           2965 kbps
Codec:             FLAC
================================================================================
Приватный:
Нет (DHT включён)
Размер:
720.31 Мб (755,300,000 байт) » файлов: 11
Участники:
3 раздают, 0 качают (3 участников всего)
Внешние участники:
18 раздают, 6 качают (24 участников всего) [ Обновить ]
No seeders - write personal message to M0p94ok. Нет сидеров - пишите в личку M0p94ok.
02:17
136
Нет комментариев. Ваш будет первым!