Вы используете незарегистрированную версию компонента "Вкладки"!

Поиск

1959 Diahann Carroll - Porgy And Bess (2019) {RevOla} [24-44,1]

1959 Diahann Carroll - Porgy And Bess (2019) {RevOla} [24-44,1]
Дата переиздания диска:
15 апреля 2019
Издатель (лейбл):
Носитель:
WEB
Формат:
PCM
Тип рипа:
tracks+.cue
Контейнер:
APE (*.ape)
Количество каналов:
2.0
Битрейт аудио:
lossless
Лог проверки качества
foobar2000 1.6.2 / Dynamic Range Meter 1.1.1
log date: 2021-01-18 22:52:20

--------------------------------------------------------------------------------
Analyzed: Diahann Carroll / Porgy And Bess
--------------------------------------------------------------------------------

DR         Peak         RMS     Duration Track
--------------------------------------------------------------------------------
DR10      -2.07 dB   -15.92 dB      2:44 01-Summertime
DR9       -2.80 dB   -15.87 dB      4:13 02-My Man's Gone Now
DR12      -2.84 dB   -16.66 dB      2:53 03-I Got Plenty Of Nuttin'
DR9       -3.51 dB   -17.12 dB      4:42 04-Porgy, I Is Your Woman (Bess, You Is My Woman)
DR11      -3.63 dB   -16.33 dB      3:09 05-Oh, I Can't Sit Down
DR11      -1.12 dB   -20.76 dB      3:21 06-It Ain't Necessarily So
DR9       -3.02 dB   -14.84 dB      3:14 07-What You Want Wid Bess
DR8       -3.01 dB   -14.80 dB      3:18 08-I Loves You Porgy
DR12      -1.04 dB   -18.70 dB      3:06 09-There's Somebody Knockin'
DR11      -3.28 dB   -16.63 dB      3:31 10-There's A Boat That's Leavin' Soon For New York
--------------------------------------------------------------------------------

Number of tracks:  10
Official DR value: DR10

Samplerate:        44100 Hz
Channels:          2
Bits per sample:   24
Bitrate:           1080 kbps
Codec:             FLAC
================================================================================
Any questions - support@pro-jazz.com. Есть вопросы - support@pro-jazz.com
00:14
176
Нет комментариев. Ваш будет первым!