Поиск

2020 Rebekka Bakken - Winter Nights {OKeh} [24-48]

2020 Rebekka Bakken - Winter Nights {OKeh} [24-48]
Стили:
Дата издания диска:
30 октября 2020
Издатель (лейбл):
Битрейт аудио:
lossless
Доп. инфо:

Формат записи/Источник записи: [TR24][OF]
Наличие водяных знаков: Нет
Год издания: 2020
Продолжительность: 00:45:26
Наличие сканов в содержимом раздачи: Буклет PDF
Контейнер: FLAC (*.flac)
Тип рипа: tracks
Разрядность: 24/48
Формат: PCM
Количество каналов: 2.0
Источник (релизер): highresaudio.com

Лог проверки качества
foobar2000 1.4.8 / Dynamic Range Meter 1.1.1
log date: 2020-11-29 15:07:25

--------------------------------------------------------------------------------
Analyzed: Rebekka Bakken / Winter Nights
--------------------------------------------------------------------------------

DR         Peak         RMS     Duration Track
--------------------------------------------------------------------------------
DR7       -1.00 dB   -10.53 dB      4:03 01-Wonder in Your Eyes
DR8       -1.00 dB   -11.66 dB      2:56 02-Kyrie Eleison
DR8       -1.00 dB   -11.96 dB      4:23 03-This Year Is Different
DR11      -1.00 dB   -14.85 dB      3:53 04-Last Christmas
DR9       -1.00 dB   -12.79 dB      5:31 05-Calling All Angels
DR9       -1.00 dB   -12.94 dB      3:37 06-May the Night Be Gentle
DR8       -1.00 dB   -11.40 dB      3:33 07-Fairytale of New York
DR9       -1.00 dB   -12.54 dB      4:14 08-Mary's Child
DR10      -1.00 dB   -12.80 dB      2:33 09-Angels Never Sleep
DR9       -1.00 dB   -12.26 dB      2:36 10-December Nights
DR8       -1.00 dB   -11.78 dB      4:30 11-In the Bleak Midwinter
DR9       -1.00 dB   -12.19 dB      3:43 12-Silent Night
--------------------------------------------------------------------------------

Number of tracks:  12
Official DR value: DR9
Samplerate:        48000 Hz
Channels:          2
Bits per sample:   24
Bitrate:           1532 kbps
Codec:             FLAC
================================================================================
No seeders - write personal message to M0p94ok. Any questions - support@pro-jazz.com.
Нет сидеров - пишите в личку M0p94ok. Есть вопросы - support@pro-jazz.com
22:58
204
Нет комментариев. Ваш будет первым!