Поиск

2014 The Hot Sardines - The Hot Sardines {Decca Crossover} [24-96]

2014 The Hot Sardines - The Hot Sardines {Decca Crossover} [24-96]
Стили:
Битрейт аудио:
lossless

Треклист:

01 - Bei Mir Bist Du Schoen (4:06)
02 - Goin’ Crazy With The Blues (3:08)
03 - Wake Up In Paris (4:07)
04 - Zazou (Sweet Sue) (2:48)
05 - I Can't Give You Anything But Love (3:40)
06 - Your Feet's Too Big (3:20)
07 - Honeysuckle Rose (3:52)
08 - Petite Fleur (3:26)
09 - What A Little Moonlight Can Do (4:12)
10 - Let’s Go (2:53)
11 - (I Don't Stand) A Ghost Of A Chance With You (4:06)

Лог проверки качества
foobar2000 1.6.2 / Dynamic Range Meter 1.1.1
log date: 2020-11-27 20:22:31

--------------------------------------------------------------------------------
Analyzed: The Hot Sardines / The Hot Sardines
--------------------------------------------------------------------------------

DR         Peak         RMS     Duration Track
--------------------------------------------------------------------------------
DR9       -0.30 dB   -11.36 dB      4:06 01-Bei Mir Bist Du Schoen
DR8       -0.21 dB   -10.73 dB      3:08 02-Goin’ Crazy With The Blues
DR9       -0.40 dB   -12.77 dB      4:07 03-Wake Up In Paris
DR9        0.00 dB   -10.61 dB      2:48 04-Zazou (Sweet Sue)
DR12      -0.40 dB   -15.22 dB      3:40 05-I Can't Give You Anything But Love
DR9       -0.37 dB   -14.16 dB      3:20 06-Your Feet's Too Big
DR9       -0.32 dB   -12.40 dB      3:52 07-Honeysuckle Rose
DR10      -0.40 dB   -13.16 dB      3:26 08-Petite Fleur
DR9       -0.30 dB   -11.82 dB      4:12 09-What A Little Moonlight Can Do
DR10      -0.26 dB   -12.03 dB      2:53 10-Let’s Go
DR10      -0.33 dB   -12.74 dB      4:06 11-(I Don't Stand) A Ghost Of A Chance With You
--------------------------------------------------------------------------------

Number of tracks:  11
Official DR value: DR10

Samplerate:        96000 Hz
Channels:          2
Bits per sample:   24
Bitrate:           2891 kbps
Codec:             FLAC
================================================================================
Приватный:
Нет (DHT включён)
Размер:
838.27 Мб (878,994,950 байт) » файлов: 13
Участники:
0 раздают, 0 качают (0 участников всего)
Внешние участники:
5 раздают, 2 качают (7 участников всего) [ Обновить ]
No seeders - write personal message to M0p94ok. Any questions - support@pro-jazz.com.
Нет сидеров - пишите в личку M0p94ok. Есть вопросы - support@pro-jazz.com
19:15
133
Нет комментариев. Ваш будет первым!