Поиск

1974 Bill Evans - Symbiosis (2017) {MPS} [24-88,2]

1974 Bill Evans - Symbiosis (2017) {MPS} [24-88,2]
Стили:
Дата записи диска:
11 февраля, 12 февраля и 14 февраля 1974
Место записи:
Columbia Recording Studios, New York City, NY, USA
Издатель (лейбл):
Номер по каталогу:
523 381-2
Носитель:
WEB
Формат:
PCM
Тип рипа:
tracks+.cue
Контейнер:
APE (*.ape)
Количество каналов:
2.0
Разрядность/ЧД:
24/88,2
Битрейт аудио:
lossless
Время звучания:
00:41:00
Наличие сканов:
web
Наличие водяных знаков:
нет
Страна-производитель диска (релиза):
USA
Релизёр (источник):
M0p94ok

Треклист:

Symbiosis, 1st Movement:
1. Moderato. Various Tempi, Pt. 1  07:55
2. Moderato. Various Tempi, Pt. 2  05:16
3. Movement: Moderato. Various Tempi, Pt. 3  11:50
Symbiosis, 2nd Movement:
4. Largo - Andante - Maestoso - Largo, Pt.1  09:13
5. Largo - Andante - Maestoso - Largo, Pt. 2  06:46

Лог проверки качества
foobar2000 1.3.16 / Dynamic Range Meter 1.1.1
log date: 2019-04-18 03:51:06

--------------------------------------------------------------------------------
Analyzed: Bill Evans / Symbiosis
--------------------------------------------------------------------------------

DR         Peak         RMS     Duration Track
--------------------------------------------------------------------------------
DR11      -2.08 dB   -18.13 dB      7:55 01-Symbiosis, 1st Movement: Moderato. Various Tempi, Pt. 1
DR12      -1.06 dB   -16.11 dB      5:16 02-Symbiosis, 1st Movement: Moderato. Various Tempi, Pt. 2
DR11      -1.70 dB   -15.29 dB     11:51 03-Symbiosis, 1st Movement: Moderato. Various Tempi, Pt. 3
DR12      -0.69 dB   -17.63 dB      9:13 04-Symbiosis, 2nd Movement: Largo - Andante - Maestoso - Largo, Pt.1
DR10      -1.11 dB   -14.47 dB      6:47 05-Symbiosis, 2nd Movement: Largo - Andante - Maestoso - Largo, Pt. 2
--------------------------------------------------------------------------------

Number of tracks:  5
Official DR value: DR11

Samplerate:        88200 Hz
Channels:          2
Bits per sample:   24
Bitrate:           2761 kbps
Codec:             FLAC
================================================================================
Приватный:
Нет (DHT включён)
Размер:
801.08 Мб (839,992,997 байт) » файлов: 10
Участники:
0 раздают, 0 качают (0 участников всего)
Внешние участники:
8 раздают, 2 качают (10 участников всего) [ Обновить ]
No seeders - write personal message to M0p94ok. Нет сидеров - пишите в личку M0p94ok.
15:19
155
Нет комментариев. Ваш будет первым!