Поиск

2019 Alain Pierre - Sitting in Some Café {Spinach Pie} [24-44,1]

2019 Alain Pierre - Sitting in Some Café {Spinach Pie} [24-44,1]
Дата издания диска:
12 апреля 2019
Носитель:
WEB
Формат:
PCM
Тип рипа:
tracks+.cue
Контейнер:
APE (*.ape)
Количество каналов:
2.0
Разрядность/ЧД:
24/44,1
Битрейт аудио:
lossless
Время звучания:
00:52:02
Наличие сканов:
web
Наличие водяных знаков:
нет
Релизёр (источник):
M0p94ok

Треклист:

01. Sitting in Some Café (4:32)
02. The French House (4:07)
03. Beers, Heat & Smoke (5:43)
04. Pub Crawler (6:09)
05. Toboggans (4:08)
06. Café de Paris, tunis (4:24)
07. Les jardins de Saint-Estèphe (4:21)
08. Ruhiger Schwindel (4:27)
09. Jon & John (5:20)
10. Waiters Race (4:58)
11. For a Last Drink (3:58)

Лог проверки качества
foobar2000 1.6.2 / Dynamic Range Meter 1.1.1
log date: 2021-01-17 22:51:53

--------------------------------------------------------------------------------
Analyzed: Alain Pierre, Antoine Pierre / Sitting in Some Café (1)
          Alain Pierre / Sitting in Some Café (2-11)
--------------------------------------------------------------------------------

DR         Peak         RMS     Duration Track
--------------------------------------------------------------------------------
DR14      -1.00 dB   -20.07 dB      3:58 11-For a Last Drink
DR13      -1.00 dB   -17.17 dB      4:32 01-Sitting in Some Café
DR13      -1.00 dB   -15.80 dB      4:07 02-The French House
DR12      -0.42 dB   -17.28 dB      5:43 03-Beers, Heat & Smoke
DR13      -1.00 dB   -17.80 dB      6:09 04-Pub Crawler
DR14      -1.00 dB   -17.72 dB      4:08 05-Toboggans
DR12      -1.00 dB   -17.69 dB      4:24 06-Café de Paris, tunis
DR12      -1.00 dB   -15.86 dB      4:21 07-Les jardins de Saint-Estèphe
DR13      -1.00 dB   -16.71 dB      4:27 08-Ruhiger Schwindel
DR12      -0.90 dB   -16.84 dB      5:20 09-Jon & John
DR12      -0.98 dB   -15.80 dB      4:58 10-Waiters Race
--------------------------------------------------------------------------------

Number of tracks:  11
Official DR value: DR13

Samplerate:        44100 Hz
Channels:          2
Bits per sample:   24
Bitrate:           1404 kbps
Codec:             FLAC
================================================================================
Приватный:
Нет (DHT включён)
Размер:
467.08 Мб (489,773,799 байт) » файлов: 13
Участники:
0 раздают, 0 качают (0 участников всего)
Внешние участники:
--- [ Обновить ]
No seeders - write personal message to M0p94ok. Any questions - support@pro-jazz.com.
Нет сидеров - пишите в личку M0p94ok. Есть вопросы - support@pro-jazz.com
00:01
942
Нет комментариев. Ваш будет первым!