Поиск

1958 Eddie Bert - Like Cool: The Contemporary Trombone of Eddie Bert (2020) {Countdown} [24-96]

1958 Eddie Bert - Like Cool: The Contemporary Trombone of Eddie Bert (2020) {Countdown} [24-96]
Стили:
Битрейт аудио:
lossless

Треклист:

01 - I'm Thru with Love 03:43
02 - The Blue Beetle 07:17
03 - In a Meditating Mood 03:06
04 - Father Time 05:40
05 - Cool School Days 04:36
06 - Pennies from Heaven 05:25
07 - Home Cookin' 04:51
08 - Speedster 04:41

Доп. инфо:

Формат записи/Источник записи: [TR24][OF]
Издание: Remastered
Год издания/переиздания диска: 1958/2020
Издатель (лейбл): Countdown Media
Продолжительность: 00:39:19
Наличие сканов в содержимом раздачи: Нет

Контейнер: FLAC (*.flac)
Тип рипа: tracks
Разрядность: 24/96
Количество каналов: 2.0

Источник (релизер): PROSTUDIOMASTERS

Лог проверки качества
foobar2000 1.6.1 / Dynamic Range Meter 1.1.1
log date: 2020-10-30 16:02:05

--------------------------------------------------------------------------------
Analyzed: Eddie Bert / Like Cool: The Contemporary Trombone of Eddie Bert (Remastered from the Original Somerset Tapes)
--------------------------------------------------------------------------------

DR         Peak         RMS     Duration Track
--------------------------------------------------------------------------------
DR12      -0.50 dB   -15.07 dB      3:44 01-I'm Thru with Love
DR14      -0.50 dB   -17.33 dB      7:17 02-The Blue Beetle
DR11      -0.50 dB   -14.27 dB      3:07 03-In a Meditating Mood
DR14      -0.50 dB   -17.52 dB      5:41 04-Father Time
DR15      -0.50 dB   -18.77 dB      4:37 05-Cool School Days
DR15      -0.50 dB   -18.51 dB      5:26 06-Pennies from Heaven
DR16      -0.50 dB   -19.30 dB      4:51 07-Home Cookin'
DR15      -0.50 dB   -18.30 dB      4:42 08-Speedster
--------------------------------------------------------------------------------

Number of tracks:  8
Official DR value: DR14

Samplerate:        96000 Hz
Channels:          2
Bits per sample:   24
Bitrate:           2997 kbps
Codec:             FLAC
================================================================================
Приватный:
Нет (DHT включён)
Размер:
818.51 Мб (858,266,798 байт) » файлов: 13
Участники:
0 раздают, 0 качают (0 участников всего)
Внешние участники:
3 раздают, 1 качают (4 участников всего) [ Обновить ]
No seeders - write personal message to M0p94ok. Any questions - support@pro-jazz.com.
Нет сидеров - пишите в личку M0p94ok. Есть вопросы - support@pro-jazz.com
19:53
138
Нет комментариев. Ваш будет первым!