Поиск

2019 European Jazz Trio - The Year After {Audioguy AGCD0118} [24-96]

2019 European Jazz Trio - The Year After {Audioguy AGCD0118} [24-96]
Дата издания диска:
14 марта 2019
Номер по каталогу:
AGCD0118
Носитель:
WEB
Формат:
PCM
Тип рипа:
tracks+.cue
Контейнер:
APE (*.ape)
Количество каналов:
2.0
Разрядность/ЧД:
24/96
Битрейт аудио:
lossless
Время звучания:
00:55:01
Наличие сканов:
web
Страна-производитель диска (релиза):
Korea
Релизёр (источник):
M0p94ok
Лог проверки качества
foobar2000 1.6.2 / Dynamic Range Meter 1.1.1
log date: 2021-01-17 12:45:54

--------------------------------------------------------------------------------
Analyzed: European Jazz Trio / The Year After
--------------------------------------------------------------------------------

DR         Peak         RMS     Duration Track
--------------------------------------------------------------------------------
DR12       0.00 dB   -14.87 dB      5:27 01-As Time Goes By
DR13      -0.40 dB   -17.23 dB      5:53 02-Loved But
DR13      -0.35 dB   -17.55 dB      6:45 03-Because I Love You
DR12      -0.13 dB   -15.94 dB      4:43 04-Heart
DR14      -0.23 dB   -18.66 dB      5:14 05-I'm Happy
DR12      -0.10 dB   -15.34 dB      5:54 06-Purple Fragrance
DR14      -0.07 dB   -18.54 dB      5:49 07-Late Night 1994
DR12      -0.08 dB   -15.19 dB      4:35 08-Love About That Loneliness
DR13      -0.21 dB   -15.73 dB      6:08 09-Some Other Day
DR13      -0.09 dB   -15.29 dB      4:36 10-Already Been a Year
--------------------------------------------------------------------------------

Number of tracks:  10
Official DR value: DR13

Samplerate:        96000 Hz
Channels:          2
Bits per sample:   24
Bitrate:           2954 kbps
Codec:             FLAC
================================================================================
No seeders - write personal message to M0p94ok. Any questions - support@pro-jazz.com.
Нет сидеров - пишите в личку M0p94ok. Есть вопросы - support@pro-jazz.com
17:32
214
Нет комментариев. Ваш будет первым!