Поиск

2020 Australian Art Orchestra – Sometimes Home Can Grow Stranger Than Space {AAO} [24-44,1]

2020 Australian Art Orchestra – Sometimes Home Can Grow Stranger Than Space {AAO} [24-44,1]
Дата издания диска:
11 ноября 2020
Битрейт аудио:
lossless

Треклист:

1. Sharp Folds, Pt. 1  12:30
2. Sharp Folds, Pt. 2  10:43
3. I Was Only a Child, Pt. 1  04:02
4. I Was Only a Child, Pt. 2  08:42
5. I Was Only a Child, Pt. 3  03:41
6. Bent Heart, Pt. 1  10:30
7. Bent Heart, Pt. 2  05:41
8. Bent Heart, Pt. 3  02:32

Доп. инфо:

Формат записи/Источник записи: [TR24][OF]
Наличие водяных знаков: Нет
Год издания: 2020
Издатель (лейбл): AAO Recordings
Продолжительность: 00:58:21
Наличие сканов в содержимом раздачи: Только обложка
Источник: prostudiomasters
Контейнер: FLAC (*.flac)
Тип рипа: tracks
Разрядность: 24/44,1
Формат: PCM
Количество каналов: 2.0

Лог проверки качества
foobar2000 1.6.2 / Dynamic Range Meter 1.1.1
log date: 2020-11-28 21:33:15

––––––––––––––––––––––––––––––––––––––––
Analyzed: Australian Art Orchestra / Sometimes Home Can Grow Stranger Than Space
––––––––––––––––––––––––––––––––––––––––

DR Peak RMS Duration Track
––––––––––––––––––––––––––––––––––––––––
DR12 -0.32 dB -16.94 dB 12:30 01-Sharp Folds, Pt. 1
DR13 -0.32 dB -16.44 dB 10:43 02-Sharp Folds, Pt. 2
DR10 -0.32 dB -14.13 dB 4:03 03-I Was Only a Child, Pt. 1
DR10 -0.32 dB -14.65 dB 8:42 04-I Was Only a Child, Pt. 2
DR10 -7.40 dB -20.56 dB 3:42 05-I Was Only a Child, Pt. 3
DR15 -0.32 dB -20.31 dB 10:31 06-Bent Heart, Pt. 1
DR13 -0.32 dB -17.05 dB 5:42 07-Bent Heart, Pt. 2
DR10 -9.34 dB -24.33 dB 2:32 08-Bent Heart, Pt. 3
––––––––––––––––––––––––––––––––––––––––

Number of tracks: 8
Official DR value: DR12

Samplerate: 44100 Hz
Channels: 2
Bits per sample: 24
Bitrate: 1184 kbps
Codec: FLAC
================================================================================
Приватный:
Да (DHT отключён)
Размер:
550.07 Мб (576,789,020 байт) » файлов: 9
Участники:
0 раздают, 0 качают (0 участников всего)
Внешние участники:
3 раздают, 1 качают (4 участников всего) [ Обновить ]
No seeders - write personal message to M0p94ok. Any questions - support@pro-jazz.com.
Нет сидеров - пишите в личку M0p94ok. Есть вопросы - support@pro-jazz.com
01:44
116
Нет комментариев. Ваш будет первым!