Вы используете незарегистрированную версию компонента "Вкладки"!

Поиск

2017 Léa Castro 5tet - Roads {Neuklang} [24-44,1]

2017 Léa Castro 5tet - Roads {Neuklang} [24-44,1]
Стили:
Дата издания диска:
27 января 2017
Издатель (лейбл):
Номер по каталогу:
NCD4146
Носитель:
WEB
Формат:
PCM
Тип рипа:
tracks+.cue
Контейнер:
APE (*.ape)
Количество каналов:
2.0
Разрядность/ЧД:
24/44,1
Битрейт аудио:
lossless
Время звучания:
00:54:20
Наличие сканов:
web
Страна-производитель диска (релиза):
France
Релизёр (источник):
M0p94ok
Лог проверки качества
foobar2000 1.6.2 / Dynamic Range Meter 1.1.1
log date: 2021-01-16 22:52:30

--------------------------------------------------------------------------------
Analyzed: Léa Castro 5tet / Roads
--------------------------------------------------------------------------------

DR         Peak         RMS     Duration Track
--------------------------------------------------------------------------------
DR8        0.00 dB   -11.67 dB      6:02 01-My Favorite Things
DR9        0.00 dB   -12.27 dB      4:59 02-Here Comes the Sun
DR10       0.00 dB   -13.42 dB      4:12 03-Between the Bars
DR6        0.00 dB    -9.21 dB      5:45 04-The Road
DR12       0.00 dB   -16.05 dB      4:32 05-Detour Ahead
DR10       0.00 dB   -13.91 dB      5:04 06-On Children
DR6        0.00 dB   -10.11 dB      7:10 07-Ordinary World
DR10       0.00 dB   -13.21 dB      5:25 08-Danza Lirica
DR7        0.00 dB   -10.64 dB      6:09 09-Desert Song
DR11       0.00 dB   -16.00 dB      5:04 10-In My Dreams
--------------------------------------------------------------------------------

Number of tracks:  10
Official DR value: DR9

Samplerate:        44100 Hz
Channels:          2
Bits per sample:   24
Bitrate:           1342 kbps
Codec:             FLAC
================================================================================
Any questions - support@pro-jazz.com. Есть вопросы - support@pro-jazz.com
00:08
167
Нет комментариев. Ваш будет первым!