Поиск

2020 Fats Navarro - All That Jazz, Vol. 132, 100 Percent Bebop {Jube Legends} [24-48]

2020 Fats Navarro - All That Jazz, Vol. 132, 100 Percent Bebop {Jube Legends} [24-48]
Стили:
Дата издания диска:
20 ноября 2020
Битрейт аудио:
lossless
Лог проверки качества
foobar2000 1.4.3 / Dynamic Range Meter 1.1.1
log date: 2020-11-23 18:34:22

--------------------------------------------------------------------------------
Analyzed: Fats Navarro / All That Jazz, Vol. 132: Fats Navarro – 100 Percent Bebop (Remastered 2020) (1-17)
          Sonny Stitt / All That Jazz, Vol. 132: Fats Navarro – 100 Percent Bebop (Remastered 2020) (18-21)
--------------------------------------------------------------------------------

DR         Peak         RMS     Duration Track
--------------------------------------------------------------------------------
DR10      -0.04 dB   -12.73 dB      2:50 01-Callin' Dr. Jazz
DR11      -0.04 dB   -13.21 dB      5:23 02-Boppin' a Riff
DR11      -0.04 dB   -12.96 dB      5:54 03-Fat Boy
DR11      -0.04 dB   -12.80 dB      2:19 04-Fat Girl
DR10      -0.04 dB   -12.75 dB      3:01 06-Maternity
DR10      -0.04 dB   -11.79 dB      2:51 07-The Tadd Walk
DR10      -0.04 dB   -12.38 dB      2:51 08-Goin' to Minton's
DR12      -0.04 dB   -14.63 dB      5:38 09-Everything's Cool
DR11      -0.04 dB   -12.54 dB      2:38 10-Barry's Bop
DR12      -0.04 dB   -13.65 dB      2:49 12-Fats Blows
DR10      -0.04 dB   -11.87 dB      2:58 13-A Bebop Carol
DR10      -0.04 dB   -12.31 dB      2:43 14-Nostalgia
DR13      -0.04 dB   -15.08 dB      5:26 15-Webb City
DR11      -0.04 dB   -13.14 dB      2:40 17-Ice Freezes Red
DR10      -0.04 dB   -11.81 dB      2:39 19-A Hollerin' and Screamin'
DR11      -0.04 dB   -13.14 dB      2:23 20-Eb Pob
DR11      -0.04 dB   -12.26 dB      2:36 21-Bebop Romp
DR12      -0.04 dB   -14.46 dB      2:41 05-Blues in Bebop
DR12      -0.04 dB   -13.28 dB      2:35 11-Good Kick
DR11      -0.04 dB   -13.66 dB      2:26 16-Seven Up
DR11      -0.04 dB   -13.67 dB      2:32 18-Serenade to a Square
--------------------------------------------------------------------------------

Number of tracks:  21
Official DR value: DR11

Samplerate:        48000 Hz
Channels:          2
Bits per sample:   24
Bitrate:           1302 kbps
Codec:             FLAC
================================================================================
No seeders - write personal message to M0p94ok. Any questions - support@pro-jazz.com.
Нет сидеров - пишите в личку M0p94ok. Есть вопросы - support@pro-jazz.com
22:52
155
Нет комментариев. Ваш будет первым!