Поиск

2019 Yusuke Shima - Jazz Songs, Vol. 2 {Todoroki Jazz} [24-48]

2019 Yusuke Shima - Jazz Songs, Vol. 2 {Todoroki Jazz} [24-48]
Дата издания диска:
5 апреля 2019
Носитель:
WEB
Формат:
PCM
Тип рипа:
tracks+.cue
Контейнер:
APE (*.ape)
Количество каналов:
2.0
Разрядность/ЧД:
24/48
Битрейт аудио:
lossless
Время звучания:
01:11:57
Наличие сканов:
web
Наличие водяных знаков:
нет
Страна-производитель диска (релиза):
Japan
Релизёр (источник):
M0p94ok

Треклист:

01. Over the Rainbow  03:17
02. Fly Me to the Moon  04:23
03. How Insensitive  04:18
04. Moon River  03:49
05. My Little Suade Shoes  02:55
06. Candy  04:02
07. Club R  04:12
08. Lawns  05:11
09. The Girl from Ipanema  05:43
10. Plein soleil  02:21
11. Heal the World  03:51
12. Look Down on the Sea from the Top  03:46
13. Spartacus  03:11
14. Softly, as in a Morning Sunrise  04:48
15. Summertime  04:11
16. Take the "A" Train  03:05
17. Happy Birthday to You (Live)  01:29
18. Misty  07:24

Доп. инфо:

Даже если между музыкальными областями, в которых сямисэн (инструмент японской музыкальной традиции, похожий на трехструнную длинную гитару с тонким грифом, обычно перебираемую плектром, называемым бачи), и трубой находится большое расстояние, Ояма и Шима могут уменьшить и перекрыть такие культурные несоответствия, позволяя интригующему и динамичному музыкальному диалогу между инструментами, чьи звуковые особенности здесь переплетаются, создавая необычную смесь. Более того, следует подчеркнуть тот факт, что Ояма играет на своем инструменте в стиле цугару сямисэн, который предполагает важную импровизационную составляющую, что делает его особенно подходящим для такого проекта.

https://www.prostudiomasters.com/album/page/31970

https://www.highresaudio.com/de/album/view/dp95xh/yusuke-shima-jazz-songs-vol-2

Лог проверки качества
foobar2000 1.3.16 / Dynamic Range Meter 1.1.1
log date: 2019-04-05 20:13:50

--------------------------------------------------------------------------------
Analyzed: Yusuke Shima / Jazz Songs, Vol. 2
--------------------------------------------------------------------------------

DR         Peak         RMS     Duration Track
--------------------------------------------------------------------------------
DR11      -2.39 dB   -18.65 dB      3:18 01-Over the Rainbow
DR13      -0.10 dB   -17.43 dB      4:23 02-Fly Me to the Moon
DR12      -2.56 dB   -19.64 dB      4:19 03-How Insensitive
DR14      -2.96 dB   -20.27 dB      3:50 04-Moon River
DR13      -0.10 dB   -14.85 dB      2:55 05-My Little Suade Shoes
DR13      -0.10 dB   -16.30 dB      4:03 06-Candy
DR11      -1.50 dB   -14.54 dB      4:13 07-Club R
DR12      -0.10 dB   -15.75 dB      5:11 08-Lawns
DR14      -0.25 dB   -17.22 dB      5:44 09-The Girl from Ipanema
DR13      -0.99 dB   -17.98 dB      2:22 10-Plein soleil
DR13      -0.10 dB   -16.00 dB      3:52 11-Heal the World
DR12      -1.91 dB   -17.67 dB      3:47 12-Look Down on the Sea from the Top
DR11      -0.20 dB   -15.46 dB      3:12 13-Spartacus
DR13      -0.74 dB   -16.25 dB      4:48 14-Softly, as in a Morning Sunrise
DR13      -0.63 dB   -18.15 dB      4:11 15-Summertime
DR13      -0.10 dB   -15.91 dB      3:05 16-Take The A Train: Take the "A" Train
DR16       0.00 dB   -19.32 dB      1:30 17-Happy Birthday to You (Live)
DR13      -0.99 dB   -19.84 dB      7:25 18-Misty
--------------------------------------------------------------------------------

Number of tracks:  18
Official DR value: DR13

Samplerate:        48000 Hz
Channels:          2
Bits per sample:   24
Bitrate:           1322 kbps
Codec:             FLAC
================================================================================
Приватный:
Нет (DHT включён)
Размер:
664.00 Мб (696,258,487 байт) » файлов: 20
Участники:
1 раздают, 0 качают (1 участников всего)
Внешние участники:
--- [ Обновить ]
No seeders - write personal message to M0p94ok. Нет сидеров - пишите в личку M0p94ok.
17:53
161
Нет комментариев. Ваш будет первым!