Поиск

2020 Maria Emrik - Homeless Heart {Ali Production} [24-96]

2020 Maria Emrik - Homeless Heart {Ali Production} [24-96]
Стили:
Дата издания диска:
27 ноября 2020
Битрейт аудио:
lossless
Лог проверки качества
foobar2000 1.4.8 / Dynamic Range Meter 1.1.1
log date: 2020-11-28 16:55:20

--------------------------------------------------------------------------------
Analyzed: Maria Emrik / Homeless Heart
--------------------------------------------------------------------------------

DR         Peak         RMS     Duration Track
--------------------------------------------------------------------------------
DR11       0.00 dB   -12.85 dB      3:43 01-A Wonderful Day
DR10      -0.92 dB   -13.51 dB      4:53 02-Remember June
DR10      -0.73 dB   -13.32 dB      3:09 03-You Had the Chance
DR11      -0.32 dB   -13.60 dB      3:53 04-Shadows in the Dark
DR11      -0.32 dB   -13.69 dB      4:28 05-Let Me Lie Here
DR10      -0.66 dB   -13.03 dB      3:26 06-Kiss Me
DR10      -0.32 dB   -13.50 dB      3:55 07-Homeless Heart
DR11      -0.32 dB   -13.19 dB      3:47 08-Don't Get Me Wrong
DR11      -0.32 dB   -14.39 dB      4:22 09-Three Little Words
--------------------------------------------------------------------------------

Number of tracks:  9
Official DR value: DR10
Samplerate:        96000 Hz
Channels:          2
Bits per sample:   24
Bitrate:           2822 kbps
Codec:             FLAC
================================================================================
No seeders - write personal message to M0p94ok. Any questions - support@pro-jazz.com.
Нет сидеров - пишите в личку M0p94ok. Есть вопросы - support@pro-jazz.com
16:57
529
Нет комментариев. Ваш будет первым!