Поиск

2019 Gustaf Rosenberg's Amalia - Amalia {Havtorn} [24-48]

2019 Gustaf Rosenberg's Amalia - Amalia {Havtorn} [24-48]
Стили:
Место записи:
Tambourine Studios, Malmö, Sweden
Дата издания диска:
12 апреля 2019
Номер по каталогу:
HR055
Носитель:
WEB
Формат:
PCM
Тип рипа:
tracks+.cue
Контейнер:
APE (*.ape)
Количество каналов:
2.0
Разрядность/ЧД:
24/48
Битрейт аудио:
lossless
Время звучания:
00:37:18
Наличие сканов:
web
Страна-производитель диска (релиза):
Sweden
Релизёр (источник):
M0p94ok

This album is available on our DC++ hub: dc.pro-jazz.com
Этот альбом доступен на нашем DC++ хабе: dc.pro-jazz.com

Треклист:

1. Etyd no.1 04:08
2. Bubblor 05:26
3. Stad 08:11
4. Beobania 09:25
5. Amalia 04:38
6. Vals 05:30

Состав:
  • Gustaf Rosenberg, piano
  • Edvin Lorinius, saxophone
  • James Whife, double bass
  • Kristoffer Rostedt, drums
  • Recorded and mixed by Måns Wikenmo, 2018
  • Mastering by Jonas Siöström, Dynamic Audio
Лог проверки качества
foobar2000 1.6.2 / Dynamic Range Meter 1.1.1
log date: 2021-01-16 13:29:13

--------------------------------------------------------------------------------
Analyzed: Gustaf Rosenbergs Amalia / Amalia
--------------------------------------------------------------------------------

DR         Peak         RMS     Duration Track
--------------------------------------------------------------------------------
DR13      -0.02 dB   -15.41 dB      4:09 01-Etyd no.1
DR15      -0.02 dB   -18.81 dB      5:26 02-Bubblor
DR13      -0.58 dB   -16.86 dB      8:12 03-Stad
DR11      -0.02 dB   -14.49 dB      9:25 04-Beobania
DR13      -0.02 dB   -14.72 dB      4:38 05-Amalia
DR15      -0.02 dB   -19.59 dB      5:30 06-Vals
--------------------------------------------------------------------------------

Number of tracks:  6
Official DR value: DR13

Samplerate:        48000 Hz
Channels:          2
Bits per sample:   24
Bitrate:           1459 kbps
Codec:             FLAC
================================================================================
15:15
524
Нет комментариев. Ваш будет первым!