Вы используете незарегистрированную версию компонента "Вкладки"!

Поиск

2020 Tori Handsley - As We Stand {Cadillac} [24-44,1]

2020 Tori Handsley - As We Stand {Cadillac} [24-44,1]
Стили:
Дата издания диска:
27 ноября 2020
Битрейт аудио:
lossless
Доп. инфо:

Формат записи/Источник записи: [TR24][OF]
Наличие водяных знаков: Нет
Год издания: 2020
Издатель (лейбл): Cadillac Records
Продолжительность: 01:01:47
Наличие сканов в содержимом раздачи: Только обложка альбома
Контейнер: FLAC (*.flac)
Тип рипа: tracks
Разрядность: 24/44.1
Формат: PCM
Количество каналов: 2.0
Источник (релизер): prestomusic.com

Лог проверки качества
foobar2000 1.6 / Dynamic Range Meter 1.1.1
log date: 2020-11-27 17:23:47

--------------------------------------------------------------------------------
Analyzed: Tori Handsley / As We Stand
--------------------------------------------------------------------------------

DR         Peak         RMS     Duration Track
--------------------------------------------------------------------------------
DR6        0.00 dB    -8.33 dB      4:14 01-Rivers of Mind
DR7       -0.16 dB   -10.76 dB      5:00 02-Convolution
DR13      -0.44 dB   -17.13 dB      6:49 03-Polar Retreat
DR8       -0.39 dB   -10.21 dB      7:31 04-Out of Sight, out of Mind
DR10      -0.12 dB   -14.02 dB      8:54 05-Home
DR7       -0.35 dB   -10.67 dB      6:56 06-Settling into the Sun
DR8       -0.38 dB   -10.89 dB      4:11 07-Intwination
DR11      -0.50 dB   -14.32 dB      5:19 08-As We Stand
DR9       -0.34 dB   -14.67 dB      6:50 09-Kestrel
DR7       -0.39 dB    -9.48 dB      6:07 10-What's in a Tune
--------------------------------------------------------------------------------

Number of tracks:  10
Official DR value: DR9
Samplerate:        44100 Hz
Channels:          2
Bits per sample:   24
Bitrate:           1438 kbps
Codec:             FLAC
================================================================================
Any questions - support@pro-jazz.com. Есть вопросы - support@pro-jazz.com
14:25
230
Нет комментариев. Ваш будет первым!