Поиск

2017 Sam Taylor Quartet - Along The Way {Cellar Live} [24-96]

2017 Sam Taylor Quartet - Along The Way {Cellar Live} [24-96]
Дата переиздания диска:
3 ноября 2017
Издатель (лейбл):
Битрейт аудио:
lossless
Доп. инфо:

Формат записи/Источник записи: [TR24][OF]
Год издания/переиздания диска: 2017
Издатель (лейбл): Cellar Live
Продолжительность: 00:55:32
Наличие сканов в содержимом раздачи: Нет

Контейнер: FLAC (*.flac)
Тип рипа: tracks
Разрядность: 24/96
Количество каналов: 2.0

Источник (релизер): HIGHRESAUDIO

Лог проверки качества
foobar2000 1.3.16 / Dynamic Range Meter 1.1.1
log date: 2019-04-24 20:20:15

--------------------------------------------------------------------------------
Analyzed: Sam Taylor Quartet / Along The Way
--------------------------------------------------------------------------------

DR         Peak         RMS     Duration Track
--------------------------------------------------------------------------------
DR14      -0.28 dB   -17.76 dB      4:31 01-Make Someone Happy
DR14      -0.28 dB   -17.60 dB      5:09 02-Fats Flats
DR15      -0.28 dB   -19.54 dB      6:28 03-On The Trail
DR14      -8.42 dB   -24.85 dB      9:23 04-Where Are You
DR13      -0.28 dB   -17.97 dB      6:38 05-People Will Say We're In Love
DR15      -5.04 dB   -24.45 dB      5:08 06-The Close Things
DR15      -1.00 dB   -19.87 dB      6:24 07-There's No You
DR14      -2.59 dB   -19.46 dB      6:14 08-Wild Is Love
DR12      -0.28 dB   -15.77 dB      5:42 09-I Want More
--------------------------------------------------------------------------------

Number of tracks:  9
Official DR value: DR14

Samplerate:        96000 Hz
Channels:          2
Bits per sample:   24
Bitrate:           3013 kbps
Codec:             FLAC
================================================================================
No seeders - write personal message to M0p94ok. Any questions - support@pro-jazz.com.
Нет сидеров - пишите в личку M0p94ok. Есть вопросы - support@pro-jazz.com
15:20
160
Нет комментариев. Ваш будет первым!