Вы используете незарегистрированную версию компонента "Вкладки"!

Поиск

2019 Henri Roger - Circles Expansion {Facing You, NL} [24-48]

2019 Henri Roger - Circles Expansion {Facing You, NL} [24-48]
Дата издания диска:
15 апреля 2019
Носитель:
WEB
Формат:
PCM
Тип рипа:
tracks+.cue
Контейнер:
APE (*.ape)
Количество каналов:
2.0
Разрядность/ЧД:
24/48
Битрейт аудио:
lossless
Время звучания:
00:41:49
Наличие сканов:
web
Релизёр (источник):
M0p94ok
Доп. инфо:

алеатор, автоорганизация, возмущения, встроенное напряжение, цветовой спектр между гармоническими обертонами и шумом и многое другое ....

https://henriroger.bandcamp.com/album/circles-expansion

https://www.qobuz.com/de-de/album/circles-expansion-henri-roger/qtkdk4mv8sdnb

Лог проверки качества
foobar2000 1.3.16 / Dynamic Range Meter 1.1.1
log date: 2019-04-17 19:58:32

--------------------------------------------------------------------------------
Analyzed: Henri Roger / Circles Expansion
--------------------------------------------------------------------------------

DR         Peak         RMS     Duration Track
--------------------------------------------------------------------------------
DR8       -0.20 dB   -12.61 dB      3:33 01-Circles Expansion, Pt. 1
DR3        0.00 dB    -6.03 dB      3:34 02-Circles Expansion, Pt. 2
DR5        0.00 dB    -9.22 dB      4:10 03-Circles Expansion, Pt. 3
DR9       -0.23 dB   -13.87 dB      3:26 04-Circles Expansion, Pt. 4
DR6        0.00 dB    -8.36 dB      3:29 05-Circles Expansion, Pt. 5
DR8       -0.26 dB   -14.69 dB      4:01 06-Circles Expansion, Pt. 6
DR8        0.00 dB   -11.07 dB      3:18 07-Circles Expansion, Pt. 7
DR6        0.00 dB    -9.81 dB      2:59 08-Circles Expansion, Pt. 8
DR3        0.00 dB    -4.95 dB      2:53 09-Circles Expansion, Pt. 9
DR5       -0.09 dB    -8.67 dB      2:43 10-Circles Expansion, Pt. 10
DR12      -0.23 dB   -16.53 dB      3:38 11-Circles Expansion, Pt. 11
DR6       -0.02 dB   -10.88 dB      4:10 12-Circles Expansion, Pt. 12
--------------------------------------------------------------------------------

Number of tracks:  12
Official DR value: DR7

Samplerate:        48000 Hz
Channels:          2
Bits per sample:   24
Bitrate:           1678 kbps
Codec:             FLAC
================================================================================
Any questions - support@pro-jazz.com. Есть вопросы - support@pro-jazz.com
13:46
174
Нет комментариев. Ваш будет первым!