Поиск

2020 J. Peter Schwalm & Arve Henriksen – Neuzeit {RareNoise} [24-96]

2020 J. Peter Schwalm & Arve Henriksen – Neuzeit {RareNoise} [24-96]
Дата издания диска:
27 ноября 2020
Битрейт аудио:
lossless
Доп. инфо:

Формат записи/Источник записи: [TR24][OF]
Наличие водяных знаков: Нет
Год издания: 2020
Издатель (лейбл): RareNoiseRecords
Продолжительность: 00:48:52
Наличие сканов в содержимом раздачи: Только обложка
Источник: rarenoiserecords
Контейнер: FLAC (*.flac)
Тип рипа: tracks
Разрядность: 24/96
Формат: PCM
Количество каналов: 2.0

Лог проверки качества
foobar2000 1.6.2 / Dynamic Range Meter 1.1.1
log date: 2020-11-26 22:24:00

––––––––––––––––––––––––––––––––––––––––
Analyzed: J.Peter Schwalm & Arve Henriksen / Neuzeit
––––––––––––––––––––––––––––––––––––––––

DR Peak RMS Duration Track
––––––––––––––––––––––––––––––––––––––––
DR9 0.00 dB -12.29 dB 5:56 01-Blutezeit
DR11 -0.04 dB -14.20 dB 5:27 02-Suchzeit
DR13 0.00 dB -16.65 dB 8:04 03-Neuzeit
DR13 -0.03 dB -16.82 dB 7:10 04-Raumzeit
DR13 -0.14 dB -17.93 dB 5:53 05-Schonzeit
DR15 -0.05 dB -20.28 dB 3:54 06-Unzeit
DR13 -0.06 dB -17.16 dB 7:11 07-Wellenzeit
DR13 -0.65 dB -18.22 dB 5:17 08-Zeitnah
––––––––––––––––––––––––––––––––––––––––

Number of tracks: 8
Official DR value: DR13

Samplerate: 96000 Hz
Channels: 2
Bits per sample: 24
Bitrate: 2197 kbps
Codec: FLAC
================================================================================
No seeders - write personal message to M0p94ok. Any questions - support@pro-jazz.com.
Нет сидеров - пишите в личку M0p94ok. Есть вопросы - support@pro-jazz.com
13:10
289
Нет комментариев. Ваш будет первым!